L’Abbuffata (2007), [XviD – Ita Mp3]  (696.11 Mb)

Likes(0)Dislikes(0)
seeders: 0
leechers: 0


loading...
loading...






Info

L'abbuffata


5.3
IMDB: 5.3/10 75 votes

Durata: 100 min

Released:

Anno: 16 Nov 2007

Direttore:

Premi: 1 win.

Stato: Released

Paese: Italy

Cast:




Tre Ragazzi di Diamante, Un Paesino in Provincia di Cosenza, Decidono di Girare un Cortometraggio che Riguarda la Propria Terra. Mancano Due Elementi a cui Sopperire: Il Regista e l’Attore Protagonista. Per il Primo a Nulla Valgono le Pressioni Affinché un Regista in Vacanza in Quel Paese da 4 anni per Trovare l’Ispirazione, Neri, Riprenda la Macchina da Presa. Per il Ruolo d’Attore non c’è Molta Scelta, In Paese Nessuno Risponde alle Caratteristiche Richieste. Decidono Allora di Andare a Roma per Cercare Qualcuno, Dopo Tanti “No” Un’Attrice Propone ai Tre il suo Fidanzato Francese: E’ Gérard Depardieu. La Sera in cui Bisogna Girare c’è Tutto: La Festa, Gli Attori, I Registi (I Tre Ragazzi), Solo che un Evento Inaspettato non gli Permetterà di Realizzare la Pellicola.

Trailer


Upload on Youtube

Info File

Complete name : L'Abbuffata.avi
Format : AVI
Format/Info : Audio Video Interleave
File size : 696 MiB
Duration : 1h 41mn
Overall bit rate : 957 Kbps
Writing application : VirtualDubMod 1.5.10.2 (build 2540/release)
Writing library : VirtualDubMod build 2540/release

Video
ID : 0
Format : MPEG-4 Visual
Format profile : Advanced [email protected]
Format settings, BVOP : 2
Format settings, QPel : No
Format settings, GMC : No warppoints
Format settings, Matrix : Default (H.263)
Codec ID : XVID
Codec ID/Hint : XviD
Duration : 1h 41mn
Bit rate : 815 Kbps
Width : 560 pixels
Height : 304 pixels
Display aspect ratio : 16:9
Frame rate : 25.000 fps
Color space : YUV
Chroma subsampling : 4:2:0
Bit depth : 8 bits
Scan type : Progressive
Compression mode : Lossy
Bits/(Pixel*Frame) : 0.191
Stream size : 593 MiB (85%)
Writing library : XviD 1.2.0.dev47 (UTC 2006-11-01)

Audio
ID : 1
Format : MPEG Audio
Format version : Version 1
Format profile : Layer 3
Mode : Joint stereo
Mode extension : MS Stereo
Codec ID : 55
Codec ID/Hint : MP3
Duration : 1h 41mn
Bit rate mode : Variable
Bit rate : 128 Kbps
Channel(s) : 2 channels
Sampling rate : 48.0 KHz
Compression mode : Lossy
Stream size : 93.9 MiB (13%)
Alignment : Aligned on interleaves
Interleave, duration : 24 ms (0.60 video frame)
Interleave, preload duration : 416 ms
Writing library : LAME3.90.

Trackers

http://tracker.istole.it:80/
http://tracker.publicbt.com:80/
http://tracker.tntvillage.scambioetico.org:2710/scrape
http://open.demonii.com:1337/scrape
http://tracker.coppersurfer.tk:6969/scrape
http://tracker.openbittorrent.com/scrape