loading...
loading...






Info

Coyote Ugly


5.6
IMDB: 5.6/10 90,414 votes

Durata: 100 min

Released:

Anno: 04 Aug 2000

Direttore:

Premi: 4 wins & 4 nominations.

Budget: 45000000$

Incassi: 113916474$

Stato: Released

Paese: USA

Tagline: Dove i sogni diventano realtà

Cast:




Violet Sanford è una ragazza del New Jersey che aspira a diventare una cantautrice, ma convive con la paura del palcoscenico. Decisa ad inseguire il suo sogno, lascia la casa dove vive con il padre Bill alla volta di New York. Gira la città proponendo i suoi provini ma familiarizza presto con la spietatezza del panorama musicale. Una sera, presa in giro dal barista di un locale, consegna la cassetta con sopra incisi i suoi brani al cuoco Kevin, spacciato dal barista per proprietario del night club…..

Trailer


Upload on Youtube

Info File

Video
ID : 0
Format : MPEG-4 Visual
Format profile : [email protected]
Format settings, BVOP : No
Format settings, QPel : No
Format settings, GMC : No warppoints
Format settings, Matrix : Default (H.263)
Codec ID : XVID
Codec ID/Hint : XviD
Duration : 1h 36mn
Bit rate : 1 500 Kbps
Width : 720 pixels
Height : 300 pixels
Display aspect ratio : 2.35:1
Frame rate : 25.000 fps
Color space : YUV
Chroma subsampling : 4:2:0
Bit depth : 8 bits
Scan type : Progressive
Compression mode : Lossy
Bits/(Pixel*Frame) : 0.278
Stream size : 1.01 GiB (66%)
Writing library : XviD 64

Audio #1
ID : 1
Format : AC-3
Format/Info : Audio Coding 3
Mode extension : CM (complete main)
Codec ID : 2000
Duration : 1h 36mn
Bit rate mode : Constant
Bit rate : 384 Kbps
Channel(s) : 6 channels
Channel positions : Front: L C R, Side: L R, LFE
Sampling rate : 48.0 KHz
Bit depth : 16 bits
Compression mode : Lossy
Stream size : 265 MiB (17%)
Alignment : Split accross interleaves
Interleave, duration : 40 ms (1.00 video frame)
Interleave, preload duration : 500 ms

Immagini

Le Ragazze Del Coyote Ugly (2000), [XviD – Ita Eng Ac3 5.1 – Sub Ita Eng]
Le Ragazze Del Coyote Ugly (2000), [XviD – Ita Eng Ac3 5.1 – Sub Ita Eng]
Le Ragazze Del Coyote Ugly (2000), [XviD – Ita Eng Ac3 5.1 – Sub Ita Eng]
Le Ragazze Del Coyote Ugly (2000), [XviD – Ita Eng Ac3 5.1 – Sub Ita Eng]
Le Ragazze Del Coyote Ugly (2000), [XviD – Ita Eng Ac3 5.1 – Sub Ita Eng]
Le Ragazze Del Coyote Ugly (2000), [XviD – Ita Eng Ac3 5.1 – Sub Ita Eng]

Trackers

http://tracker.istole.it:80/
http://tracker.tntvillage.scambioetico.org:2710/scrape
http://tracker.publicbt.com:80/
http://open.demonii.com:1337/scrape
http://tracker.coppersurfer.tk:6969/scrape
http://tracker.openbittorrent.com/scrape

Torrent correlati

Torrent Name Dimm. Creato Seed Leech
comment icon
697.71 Mb 2 mesi fa 1 1
comment icon
1.37 Gb 2 mesi fa 0 2
comment icon
1.37 Gb 1 settimana fa 0 0
comment icon
1.37 Gb 2 settimane fa 1 2
comment icon
1.37 Gb 2 mesi fa 8 0