L’età barbarica (2007), [XviD – Ita Ac3 5.1]  (1.05 Gb)

Likes(0)Dislikes(0)
seeders: 0
leechers: 0


loading...
loading...






Info

Days of Darkness


6.9
IMDB: 6.9/10 2,398 votes

Durata: 104 min

Released:

Anno: 26 Sep 2007

Direttore:

Premi: 1 win & 10 nominations.

Stato: Released

Paese: Canada, France

Cast:




Nella sua immaginazione, Jean-Marc è un cavaliere coraggioso, un celebre attore di teatro e di cinema, un premiato scrittore. Tutte le donne sono ai suoi piedi e nel suo letto. Nella realtà, Jean-Marc è un uomo senza storia, un piccolo impiegato, un marito insignificante, un padre fallito e un fumatore clandestinoo. Riuscirà a resistere alla tentazione di evadere per sempre dalla realtà e a costruirsi una vita tutta sua?

Trailer


Upload on Youtube

Info File

Complete name : E:\FILM PRONTI ALLA CONDIVISIONE\L eta Barbarica.avi
Format : AVI
Format/Info : Audio Video Interleave
File size : 1.05 GiB
Duration : 1h 39mn
Overall bit rate : 1 518 Kbps
Writing application : VirtualDubMod 1.5.4.1 (build 2178/release)
Writing library : VirtualDubMod build 2178/release

Video
ID : 0
Format : MPEG-4 Visual
Format profile : Advanced [email protected]
Format settings, BVOP : 1
Format settings, QPel : No
Format settings, GMC : No warppoints
Format settings, Matrix : Custom
Codec ID : XVID
Codec ID/Hint : XviD
Duration : 1h 39mn
Bit rate : 1 127 Kbps
Width : 720 pixels
Height : 304 pixels
Display aspect ratio : 2.35:1
Frame rate : 25.000 fps
Color space : YUV
Chroma subsampling : 4:2:0
Bit depth : 8 bits
Scan type : Progressive
Compression mode : Lossy
Bits/(Pixel*Frame) : 0.206
Stream size : 800 MiB (74%)
Writing library : XviD 1.2.1 (UTC 2008-12-04)

Audio
ID : 1
Format : AC-3
Format/Info : Audio Coding 3
Mode extension : CM (complete main)
Format settings, Endianness : Big
Codec ID : 2000
Duration : 1h 39mn
Bit rate mode : Constant
Bit rate : 384 Kbps
Channel(s) : 6 channels
Channel positions : Front: L C R, Side: L R, LFE
Sampling rate : 48.0 KHz
Compression mode : Lossy
Stream size : 273 MiB (25%)
Alignment : Split accross interleaves
Interleave, duration : 96 ms (2.40 video frames)
Interleave, preload duratio : 96 ms
Language : Italian

Immagini

L’età barbarica (2007), [XviD – Ita Ac3 5.1]
L’età barbarica (2007), [XviD – Ita Ac3 5.1]

Trackers

http://tracker.istole.it:80/
http://tracker.tntvillage.scambioetico.org:2710/scrape
http://open.demonii.com:1337/scrape
http://tracker.coppersurfer.tk:6969/scrape
http://tracker.openbittorrent.com/scrape
http://tracker.publicbt.com:80/