loading...
loading...






Info

user posted image

 

Licia dolce Licia è una serie televisiva italiana andata in onda su Italia Uno nella primavera del 1987 ed ispirata ad i personaggi dell’anime Kiss me Licia.
Il telefilm è il secondo di una serie iniziata nell’autunno del 1986 con Love me Licia e che proseguirà nell’autunno del 1987 con Teneramente Licia e con Balliamo e cantiamo con Licia nella primavera del 1988. La sigla Licia dolce Licia è incisa da Cristina D’Avena.

 

Paese: Italia
Anno: 1987
Formato: serie TV
Stagioni: 1
Episodi: 35
Durata: 25 min
Lingua originale: italiano
La seconda serie del telefilm è la serie in cui finalmente viene coronato l’amore dei due innamorati. La serie infatti si conclude con la celebrazione del matrimonio tra Mirko e Licia, finalmente concesso da Marrabbio. Dopo disperati tentativi di Mirko nel convincere Marrabbio a concedergli in sposa Licia, litigi tra Marrabbio e il duo “Nonno Sam-Lauro” che parteggiavano per i giovani innamorati, Mirko ottiene finalmente il tanto ambito permesso di sposare Licia, a patto di laurearsi prima dell’estate (anche se Marrabbio, spesso e volentieri, ha fatto il gioco sporco, tentando di sabotare le tesi di Mirko, ma si dovrà rassegnare, grazie anche agli interventi di Nonno Sam e Lauro). Il gruppo dei Bee-Hive vedrà l’entrata di un nuovo manager, il burbero Jack (Vittorio Bestoso), ancora più severo del precedente Lucas (Augusto Di Bono).

Info File

Complete name : C:\Users\User\Desktop\Licia Dolce Licia - 01 Si ricomincia.mp4
Format : MPEG-4
Format profile : Base Media
Codec ID : isom (isom/iso2/avc1/mp41)
File size : 136 MiB
Duration : 22 min
Overall bit rate mode : Variable
Overall bit rate : 834 kb/s
Writing application : Lavf55.33.100

Video
ID : 1
Format : AVC
Format/Info : Advanced Video Codec
Format profile : [email protected]
Format settings, CABAC : Yes
Format settings, ReFrames : 4 frames
Codec ID : avc1
Codec ID/Info : Advanced Video Coding
Duration : 22 min
Bit rate : 700 kb/s
Width : 520 pixels
Height : 440 pixels
Display aspect ratio : 1.182
Frame rate mode : Constant
Frame rate : 25.000 FPS
Color space : YUV
Chroma subsampling : 4:2:0
Bit depth : 8 bits
Scan type : Progressive
Bits/(Pixel*Frame) : 0.122
Stream size : 114 MiB (84%)
Writing library : x264 core 142 r2431 a5831aa
Encoding settings : cabac=1 / ref=3 / deblock=1:0:0 / analyse=0x3:0x113 / me=hex / subme=7 / psy=1 / psy_rd=1.00:0.00 / mixed_ref=1 / me_range=8 / chroma_me=1 / trellis=1 / 8x8dct=1 / cqm=0 / deadzone=21,11 / fast_pskip=1 / chroma_qp_offset=-2 / threads=4 / lookahead_threads=1 / sliced_threads=0 / nr=0 / decimate=1 / interlaced=0 / bluray_compat=0 / constrained_intra=0 / bframes=3 / b_pyramid=2 / b_adapt=1 / b_bias=0 / direct=1 / weightb=1 / open_gop=0 / weightp=2 / keyint=250 / keyint_min=25 / scenecut=40 / intra_refresh=0 / rc_lookahead=40 / rc=2pass / mbtree=1 / bitrate=700 / ratetol=1.0 / qcomp=0.60 / qpmin=0 / qpmax=69 / qpstep=4 / cplxblur=20.0 / qblur=0.5 / vbv_maxrate=800 / vbv_bufsize=4000 / nal_hrd=none / filler=0 / ip_ratio=1.40 / aq=1:1.00

Audio
ID : 2
Format : AAC
Format/Info : Advanced Audio Codec
Format profile : LC
Codec ID : 40
Duration : 22 min
Duration_LastFrame : -15 ms
Bit rate mode : Variable
Bit rate : 128 kb/s
Maximum bit rate : 800 kb/s
Channel(s) : 2 channels
Channel positions : Front: L R
Sampling rate : 44.1 kHz
Frame rate : 43.066 FPS (1024 spf)
Compression mode : Lossy
Stream size : 21.0 MiB (15%)
Default : Yes
Alternate group : 1

Trackers

http://tracker.publicbt.com:80/
http://tracker.istole.it:80/
http://tracker.tntvillage.scambioetico.org:2710/scrape
http://open.demonii.com:1337/scrape
http://tracker.coppersurfer.tk:6969/scrape
http://tracker.openbittorrent.com/scrape