loading...
loading...






Info

user posted image
Love Me Licia è una serie televisiva italiana andata in onda su Italia Uno nell’autunno del 1986 ed ispirata ai personaggi dell’anime Kiss me Licia, di cui questa produzione live action rappresenta idealmente un sequel. Il telefilm sarà seguito da altre tre serie: Licia dolce Licia nella primavera del 1987, Teneramente Licia nell’autunno dello stesso anno e Balliamo e cantiamo con Licia nella primavera del 1988.
Paese: Italia
Anno: 1986
Formato: serie TV
Stagioni: 1
Episodi: 34
Durata: 25 min
Lingua originale: italiano

I Bee Hive, gruppo musicale partito per gli Stati Uniti al termine della serie animata, tornano dall’America e vanno poi in tournée seguiti dalle fidanzate. Licia sospetta che Mirko, suo fidanzato e leader dei Bee Hive, si sia innamorato della manager del gruppo Mary, ma in realtà chi si innamora di lei è Marrabbio, il padre di Licia. Marrabbio perderà letteralmente la testa per Mary e si darà un gran da fare per conquistarla, proponendole spesso invitanti cibi cucinati da lui, ma dovrà misurarsi con il più giovane e più bello Vilfredo, da lui soprannominato “Carciofo Bollito”.  La signorina Mary avrà il potere di addolcire il burbero Marrabbio, a tal punto che si convincerà a lasciare andare Licia al mare con Mirko e i Bee Hive, onde potersi occupare di Andrea. Questa prima versione del telefilm risente moltissimo dell’influenza del cartone animato, specialmente per le canzoni, i costumi e le acconciature molto simili a quelle dei loro alter ego animati (Licia, per esempio, aveva i capelli a caschetto come nel cartone animato, sebbene nelle serie successive li lascerà crescere; oppure Satomi, che in origine sfoggiava una lunga capigliatura boccolosa come nella serie animata, a partire dalla terza serie non indosserà più la parrucca).

Info File

General
Complete name : C:\Users\User\Downloads\Love.Me.Licia.16.Sulla.Spiaggia.mp4
Format : MPEG-4
Format profile : Base Media
Codec ID : isom (isom/iso2/avc1/mp41)
File size : 131 MiB
Duration : 22 min
Overall bit rate mode : Variable
Overall bit rate : 832 kb/s
Writing application : Lavf55.33.100

Video
ID : 1
Format : AVC
Format/Info : Advanced Video Codec
Format profile : [email protected]
Format settings, CABAC : Yes
Format settings, ReFrames : 4 frames
Codec ID : avc1
Codec ID/Info : Advanced Video Coding
Duration : 22 min
Bit rate : 700 kb/s
Width : 544 pixels
Height : 448 pixels
Display aspect ratio : 1.214
Frame rate mode : Constant
Frame rate : 25.000 FPS
Color space : YUV
Chroma subsampling : 4:2:0
Bit depth : 8 bits
Scan type : Progressive
Bits/(Pixel*Frame) : 0.115
Stream size : 110 MiB (84%)
Writing library : x264 core 142 r2431 a5831aa
Encoding settings : cabac=1 / ref=3 / deblock=1:0:0 / analyse=0x3:0x113 / me=hex / subme=7 / psy=1 / psy_rd=1.00:0.00 / mixed_ref=1 / me_range=8 / chroma_me=1 / trellis=1 / 8x8dct=1 / cqm=0 / deadzone=21,11 / fast_pskip=1 / chroma_qp_offset=-2 / threads=4 / lookahead_threads=1 / sliced_threads=0 / nr=0 / decimate=1 / interlaced=0 / bluray_compat=0 / constrained_intra=0 / bframes=3 / b_pyramid=2 / b_adapt=1 / b_bias=0 / direct=1 / weightb=1 / open_gop=0 / weightp=2 / keyint=250 / keyint_min=25 / scenecut=40 / intra_refresh=0 / rc_lookahead=40 / rc=2pass / mbtree=1 / bitrate=700 / ratetol=1.0 / qcomp=0.60 / qpmin=0 / qpmax=69 / qpstep=4 / cplxblur=20.0 / qblur=0.5 / vbv_maxrate=800 / vbv_bufsize=4000 / nal_hrd=none / filler=0 / ip_ratio=1.40 / aq=1:1.00

Audio
ID : 2
Format : AAC
Format/Info : Advanced Audio Codec
Format profile : LC
Codec ID : 40
Duration : 22 min
Duration_LastFrame : -9 ms
Bit rate mode : Variable
Bit rate : 128 kb/s
Maximum bit rate : 800 kb/s
Channel(s) : 2 channels
Channel positions : Front: L R
Sampling rate : 44.1 kHz
Frame rate : 43.066 FPS (1024 spf)
Compression mode : Lossy
Stream size : 20.2 MiB (15%)
Default : Yes
Alternate group : 1

Trackers

http://IPv6.leechers-paradise.org:6969/scrape
http://tracker.leechers-paradise.org:6969/scrape
http://tracker.tntvillage.scambioetico.org:2710/scrape
http://tracker.internetwarriors.net:1337/scrape
http://tracker.mg64.net:2710/scrape
http://tracker.tiny-vps.com:6969/scrape
http://tracker.coppersurfer.tk:6969/scrape
http://tracker.openbittorrent.com/scrape