loading...
loading...






Info

user posted image
.: Scheda della serie :.
Soggetto: Mike Carey (fumetto)
Neil Gaiman (personaggio)

Titolo originale Lucifer
Paese Stati Uniti d’America
Anno 2016 – in produzione
Formato serie TV
Genere fantastico, drammatico, horror, azione
Stagioni 2
Episodi 13
Durata 42 min (episodio)
Lingua originale inglese

Cast:
Tom Ellis: Lucifer Morningstar
Lauren German: Chloe Decker
Kevin Alejandro: Dan
D. B. Woodside: Amenadiel
Lesley-Ann Brandt: Maze
Scarlett Estevez: Beatrice “Trixie” Espinoza
Kevin Rankin: Malcolm Graham
Rachael Harris: Dr. Linda Martin
Tricia Helfer: Madre
Aimee Garcia: Ella Lopez

.: Info :.
Lucifer è una serie televisiva statunitense del 2016.

La serie è la trasposizione televisiva del fumetto Lucifer della Vertigo, scritto da Mike Carey, con protagonista il personaggio di Lucifer, comprimario nel fumetto Sandman di Neil Gaiman.

Lucifer, annoiato e infelice come Signore degli Inferi, abdica e abbandona il suo regno insieme all’alleata Maze per la bellezza di Los Angeles, dove gestisce il proprio locale “Lux”. In seguito alla misteriosa morte di una pop star, la quale è legata al diavolo attraverso un patto, Lucifer si immischia nell’indagine di polizia portata avanti da Chloe Decker, un’affascinante detective la cui anima è l’unica imperscrutabile da Lucifer. Sebbene “invitato” dall’angelo Amenadiel a tornare nel suo regno e criticato da Maze circa la comparsa di sentimenti terrestri, Lucifer continua a collaborare con Chloe nei vari casi polizieschi, cercando intanto di scoprire i segreti della ragazza e inevitabilmente affezionandosene, tanto da ricorrere a frequenti visite dalla terapista Linda Martin.

Info File

General
Unique ID : 306752210776780562414885991464588524571 (0xE6C653AAC02CCD8A90DA74C4B3CBBC1B)
Complete name : Lucifer.1x01.Lucifer.Morningstar.ITA.ENG.BDMux.x264-sp_54321.mkv
Format : Matroska
Format version : Version 4 / Version 2
File size : 389 MiB
Duration : 43mn 9s
Overall bit rate : 1 259 Kbps
Encoded date : UTC 2016-10-20 19:33:33
Writing application : mkvmerge v9.4.2 ('So High') 64bit
Writing library : libebml v1.3.4 + libmatroska v1.4.5
TITLE : Lucifer.S01E01.720p.BluRay.X264-REWARD
DURATION : 00:43:09.520000000
NUMBER_OF_FRAMES : 64738
NUMBER_OF_BYTES : 220203038
_STATISTICS_WRITING_APP : mkvmerge v9.4.2 ('So High') 64bit
_STATISTICS_WRITING_DATE_UTC : 2016-10-20 19:33:33
_STATISTICS_TAGS : BPS DURATION NUMBER_OF_FRAMES NUMBER_OF_BYTES

Video
ID : 1
Format : AVC
Format/Info : Advanced Video Codec
Format profile : [email protected]
Format settings, CABAC : Yes
Format settings, ReFrames : 16 frames
Codec ID : V_MPEG4/ISO/AVC
Duration : 43mn 9s
Bit rate : 658 Kbps
Width : 720 pixels
Height : 404 pixels
Display aspect ratio : 16:9
Frame rate mode : Constant
Frame rate : 25.000 fps
Original frame rate : 23.976 fps
Color space : YUV
Chroma subsampling : 4:2:0
Bit depth : 8 bits
Scan type : Progressive
Bits/(Pixel*Frame) : 0.090
Stream size : 203 MiB (52%)
Writing library : x264 core 142 r2491 24e4fed
Encoding settings : cabac=1 / ref=16 / deblock=1:-1:-1 / analyse=0x1:0x131 / me=umh / subme=10 / psy=1 / psy_rd=1,00:0,15 / mixed_ref=1 / me_range=24 / chroma_me=1 / trellis=2 / 8x8dct=0 / cqm=0 / deadzone=21,11 / fast_pskip=1 / chroma_qp_offset=-3 / threads=3 / lookahead_threads=1 / sliced_threads=0 / nr=0 / decimate=1 / interlaced=0 / bluray_compat=0 / constrained_intra=0 / bframes=8 / b_pyramid=2 / b_adapt=2 / b_bias=0 / direct=3 / weightb=1 / open_gop=0 / weightp=2 / keyint=240 / keyint_min=24 / scenecut=40 / intra_refresh=0 / rc_lookahead=60 / rc=crf / mbtree=1 / crf=21,0 / qcomp=0,60 / qpmin=0 / qpmax=69 / qpstep=4 / vbv_maxrate=20000 / vbv_bufsize=25000 / crf_max=0,0 / nal_hrd=none / filler=0 / ip_ratio=1,40 / aq=1:1,00
Language : English
Default : Yes
Forced : No
Color range : Limited
Color primaries : BT.709
Transfer characteristics : BT.709
Matrix coefficients : BT.709

Audio #1
ID : 2
Format : AC-3
Format/Info : Audio Coding 3
Mode extension : CM (complete main)
Format settings, Endianness : Big
Codec ID : A_AC3
Duration : 43mn 9s
Bit rate mode : Constant
Bit rate : 192 Kbps
Channel(s) : 2 channels
Channel positions : Front: L R
Sampling rate : 48.0 KHz
Compression mode : Lossy
Stream size : 59.3 MiB (15%)
Title : ITA
Language : Italian
Default : Yes
Forced : Yes

Audio #2
ID : 3
Format : AC-3
Format/Info : Audio Coding 3
Mode extension : CM (complete main)
Format settings, Endianness : Big
Codec ID : A_AC3
Duration : 43mn 9s
Bit rate mode : Constant
Bit rate : 384 Kbps
Channel(s) : 6 channels
Channel positions : Front: L C R, Side: L R, LFE
Sampling rate : 48.0 KHz
Compression mode : Lossy
Stream size : 119 MiB (31%)
Title : ENG
Language : English
Default : No
Forced : No
DURATION : 00:42:16.958000000
NUMBER_OF_FRAMES : 1051
NUMBER_OF_BYTES : 32319
_STATISTICS_WRITING_APP : mkvmerge v9.4.2 ('So High') 64bit
_STATISTICS_WRITING_DATE_UTC : 2016-10-20 19:33:33
_STATISTICS_TAGS : BPS DURATION NUMBER_OF_FRAMES NUMBER_OF_BYTES

Text #1
ID : 4
Format : UTF-8
Codec ID : S_TEXT/UTF8
Codec ID/Info : UTF-8 Plain Text
Title : ITA - Forced
Language : Italian
Default : Yes
Forced : Yes
DURATION : 00:42:26.038000000
NUMBER_OF_FRAMES : 1117
NUMBER_OF_BYTES : 34162
_STATISTICS_WRITING_APP : mkvmerge v9.4.2 ('So High') 64bit
_STATISTICS_WRITING_DATE_UTC : 2016-10-20 19:33:33
_STATISTICS_TAGS : BPS DURATION NUMBER_OF_FRAMES NUMBER_OF_BYTES

Text #2
ID : 5
Format : UTF-8
Codec ID : S_TEXT/UTF8
Codec ID/Info : UTF-8 Plain Text
Language : Italian
Default : No
Forced : No

Text #3
ID : 6
Format : UTF-8
Codec ID : S_TEXT/UTF8
Codec ID/Info : UTF-8 Plain Text
Language : English
Default : No
Forced : No

Text #4
ID : 7
Format : UTF-8
Codec ID : S_TEXT/UTF8
Codec ID/Info : UTF-8 Plain Text
Title : SDH
Language : English
Default : No
Forced : No

Menu
00:00:00.000 : en:00:00:00.000
00:02:48.668 : en:00:02:48.668
00:13:15.419 : en:00:13:15.294
00:22:26.136 : en:00:22:26.053
00:27:21.973 : en:00:27:21.849
00:34:36.240 : en:00:34:36.199
00:44:21.992 : en:00:44:21.868

Trackers

http://tracker.publicbt.com:80/
http://tracker.istole.it:80/
http://open.demonii.com:1337/scrape
http://tracker.coppersurfer.tk:6969/scrape
http://tracker.openbittorrent.com/scrape
http://tracker.tntvillage.scambioetico.org:2710/scrape