loading...
loading...






Info

Lucky You


5.9
IMDB: 5.9/10 18,444 votes

Durata: 124 min

Released:

Anno: 04 May 2007

Direttore:

Premi: 1 nomination.

Incassi: 5761917$

Stato: Released

Paese: USA, Germany, Australia

Cast:




Huck Cheever, E Un Giocatore di Poker Professionista,
Passione Tramandata dal Padre L.C., Due Volte Campione del Mondo di Texas Hold’em.
Huck Nutre Rancore nei Confronti del Padre per Aver Abbandonato la Madre,Morta Qualche Anno Dopo.
Nel Suo Girare per i Casinò di Las Vegas Incontra Billie Offer, Aspirante Cantante, Della Quale Si Innamora.
I Soldi Vinti al Tavolo da Poker per Huck Non Mancano, Ma Regolarmente Perde Tutto per Vari Motivi,
Il Principale dei Quali è il Continuo Tentativo di Battere il Padre.
Riesce Comunque a Procurarsi i 10.000 Dollari
Necessari a Pagarsi l’Iscrizione al Main Event delle World Series of Poker,
E Con Abilità si fà Strada nel Torneo, Arrivando Sino al Tavolo Finale.
Qui, Tra i Suoi Avversari, Ritrova Anche il Padre.
La Partita si Svolge in un Clima di Grande Tensione, Eliminazione dopo Eliminazione,
E Gli Ultimi Tre Giocatori Rimasti sono Huck, Il Padre L.C. ed un Giocatore al suo Primo Torneo dal Vivo.
Durante una Pausa Huck ed il Padre si Incontrano. L.C. Spiega al Figlio che Lui e la Madre si Erano Riappacificati Prima che Lei Morisse, Ed Inoltre gli Confida Che il Suo Più Grande Sogno Sarebbe Diventare per la Terza Volta Campione del Mondo per Entrare Nella Storia del Poker.
I Due si Scontrano Poche Mani Dopo ed Huck, Pur Avendo Una Mano Migliore Passa per Consentire al Padre di Realizzare il Proprio Sogno; Cosa Che non si Avvererà,
In Quanto Verrà Sconfitto nel Testa a Testa Finale con l’Ultimo Giocatore Rimasto.
Ormai Riappacificati, Huck e L.C. Si Incontrano Dopo il Torneo per Giocare una Partita con le Monetine, Come Erano Soliti Fare Quando Huck Era Bambino.

Trailer


Upload on Youtube

Info File

Complete name : Lucky You - Le Regole Del Gioco CD1.avi
Format : AVI
Format/Info : Audio Video Interleave
File size : 700 MiB
Duration : 55mn 13s
Overall bit rate : 1 772 Kbps
Writing application : VirtualDubMod 1.5.10.2 (build 2540/release)
Writing library : VirtualDubMod build 2540/release

Video
ID : 0
Format : MPEG-4 Visual
Format profile : Advanced [email protected]
Format settings, BVOP : 1
Format settings, QPel : No
Format settings, GMC : No warppoints
Format settings, Matrix : Default (MPEG)
Codec ID : XVID
Codec ID/Hint : XviD
Duration : 55mn 13s
Bit rate : 1 378 Kbps
Width : 640 pixels
Height : 272 pixels
Display aspect ratio : 2.35:1
Frame rate : 25.000 fps
Color space : YUV
Chroma subsampling : 4:2:0
Bit depth : 8 bits
Scan type : Progressive
Compression mode : Lossy
Bits/(Pixel*Frame) : 0.317
Stream size : 544 MiB (78%)
Writing library : XviD 1.1.2 (UTC 2006-11-01)

Audio
ID : 1
Format : AC-3
Format/Info : Audio Coding 3
Mode extension : CM (complete main)
Codec ID : 2000
Duration : 55mn 13s
Bit rate mode : Constant
Bit rate : 384 Kbps
Channel(s) : 6 channels
Channel positions : Front: L C R, Side: L R, LFE
Sampling rate : 48.0 KHz
Bit depth : 16 bits
Compression mode : Lossy
Stream size : 152 MiB (22%)
Alignment : Split accross interleaves
Interleave, duration : 40 ms (1.00 video frame)
Interleave, preload duration : 500 ms

CD2
General
Complete name : Lucky You - Le Regole Del Gioco CD2.avi
Format : AVI
Format/Info : Audio Video Interleave
File size : 701 MiB
Duration : 1h 3mn
Overall bit rate : 1 552 Kbps
Writing application : VirtualDubMod 1.5.10.2 (build 2540/release)
Writing library : VirtualDubMod build 2540/release

Video
ID : 0
Format : MPEG-4 Visual
Format profile : Advanced [email protected]
Format settings, BVOP : 1
Format settings, QPel : No
Format settings, GMC : No warppoints
Format settings, Matrix : Default (MPEG)
Codec ID : XVID
Codec ID/Hint : XviD
Duration : 1h 3mn
Bit rate : 1 158 Kbps
Width : 640 pixels
Height : 272 pixels
Display aspect ratio : 2.35:1
Frame rate : 25.000 fps
Color space : YUV
Chroma subsampling : 4:2:0
Bit depth : 8 bits
Scan type : Progressive
Compression mode : Lossy
Bits/(Pixel*Frame) : 0.266
Stream size : 523 MiB (75%)
Writing library : XviD 1.1.2 (UTC 2006-11-01)

Audio
ID : 1
Format : AC-3
Format/Info : Audio Coding 3
Mode extension : CM (complete main)
Codec ID : 2000
Duration : 1h 3mn
Bit rate mode : Constant
Bit rate : 384 Kbps
Channel(s) : 6 channels
Channel positions : Front: L C R, Side: L R, LFE
Sampling rate : 48.0 KHz
Bit depth : 16 bits
Compression mode : Lossy
Delay relative to video : 8ms
Stream size : 173 MiB (25%)
Alignment : Split accross interleaves
Interleave, duration : 40 ms (1.00 video frame)
Interleave, preload duration : 500 ms

Immagini

Lucky You – Le Regole del Gioco (2007), [XviD – Ita Ac3 5.1]
Lucky You – Le Regole del Gioco (2007), [XviD – Ita Ac3 5.1]
Lucky You – Le Regole del Gioco (2007), [XviD – Ita Ac3 5.1]
Lucky You – Le Regole del Gioco (2007), [XviD – Ita Ac3 5.1]
Lucky You – Le Regole del Gioco (2007), [XviD – Ita Ac3 5.1]
Lucky You – Le Regole del Gioco (2007), [XviD – Ita Ac3 5.1]
Lucky You – Le Regole del Gioco (2007), [XviD – Ita Ac3 5.1]
Lucky You – Le Regole del Gioco (2007), [XviD – Ita Ac3 5.1]
Lucky You – Le Regole del Gioco (2007), [XviD – Ita Ac3 5.1]

Trackers

http://tracker.istole.it:80/
http://tracker.publicbt.com:80/
http://tracker.tntvillage.scambioetico.org:2710/scrape
http://open.demonii.com:1337/scrape
http://tracker.coppersurfer.tk:6969/scrape
http://tracker.openbittorrent.com/scrape