loading...
loading...






Info

user posted image

.: Scheda della serie :.
Ideatori Joss Whedon, Jed Whedon, Maurissa Tancharoen

Titolo originale Agents of S.H.I.E.L.D.
Paese Stati Uniti d’America
Anno 2013 – in produzione
Formato serie TV
Genere azione, supereroi, fantascienza, spionaggio
Stagioni 4
Episodi 88
Durata 45 min (episodio)
Lingua originale inglese

Inizio quarta stagione in Italia: 12 ottobre 2016

Cast:
Clark Gregg: Phil Coulson
Ming-Na Wen: Melinda May
Brett Dalton: Grant Ward / Hive
Chloe Bennet: Daisy “Skye” Johnson / Quake
Iain De Caestecker: Leo Fitz
Elizabeth Henstridge: Jemma Simmons
Nick Blood: Lance Hunter
Adrianne Palicki: Bobbi Morse
Henry Simmons: Al MacKenzie
Luke Mitchell: Lincoln Campbell
John Hannah: Holden Radcliffe

.: Info :.
Marvel’s Agents of S.H.I.E.L.D., nota semplicemente come Agents of S.H.I.E.L.D., è una serie televisiva statunitense creata per la ABC da Joss Whedon, Jed Whedon e Maurissa Tancharoen e basata sull’agenzia di spionaggio S.H.I.E.L.D. (Strategic Homeland Intervention, Enforcement and Logistics Division) dei fumetti Marvel Comics, un’organizzazione dedita al mantenimento della pace in un mondo popolato da supereroi e altri esseri con poteri sovrumani. Ambientata all’interno del Marvel Cinematic Universe (MCU), la narrazione è in continuità con i film e le altre serie televisive del franchise. Rappresenta il primo prodotto live action della Marvel Television ed è realizzata in collaborazione con gli ABC Studios e Mutant Enemy; Jed Whedon, Maurissa Tancharoen e Jeffrey Bell sono gli showrunner.

La serie è incentrata sulle missioni del personaggio di Phil Coulson, già apparso nei film e interpretato da Clark Gregg, e della sua squadra di agenti S.H.I.E.L.D. per far fronte a misteri e nemici inusuali, tra cui l’HYDRA e gli Inumani. Joss Whedon cominciò a lavorare alla serie dopo il successo del film The Avengers, e nell’ottobre 2012 venne confermato il ritorno di Gregg. La serie è stata ufficialmente ordinata dalla ABC nel maggio 2013 ed è interpretata da Clark Gregg, Ming-Na Wen, Brett Dalton, Chloe Bennet, Iain De Caestecker ed Elizabeth Henstridge, ai quali si sono aggiunti nelle stagioni seguenti Nick Blood, Adrianne Palicki, Henry Simmons, Luke Mitchell e John Hannah. Nel corso della narrazione sono apparsi vari personaggi appartenenti sia ai film sia ai fumetti e gli stessi protagonisti, concepiti appositamente per il telefilm, sono stati introdotti nell’universo Marvel.

La prima stagione ha debuttato il 24 settembre 2013 ed è terminata il 13 maggio 2014; la seconda stagione è stata trasmessa dal 23 settembre 2014 al 12 maggio 2015; la terza stagione è stata trasmessa dal 29 settembre 2015 al 17 maggio 2016; il 3 marzo 2016 la serie venne rinnovata per una quarta stagione, che avrà inizio il 20 settembre 2016. Uno spin-off intitolato Marvel’s Most Wanted, incentrato sui personaggi di Bobbi Morse e Lance Hunter, ha ricevuto un ordine per un episodio pilota nell’agosto 2015, ma è stato abbandonato nel maggio 2016.

Tornato in attività dopo gli eventi di New York, l’agente Phil Coulson assembla una squadra selezionata di agenti S.H.I.E.L.D. per investigare sui casi di origine soprannaturale. Indagando sul Progetto Centipede e sul suo misterioso leader, Il Chiaroveggente, la squadra scopre che a dirigerlo è l’HYDRA e si trova ad affrontare le conseguenze della caduta dello S.H.I.E.L.D.. Nella seconda stagione il neo direttore Coulson e i suoi uomini cercano di restaurare la fiducia del governo nei confronti dello S.H.I.E.L.D. mentre continuano a combattere l’HYDRA e scoprono l’esistenza degli Inumani, una razza di umani dotati di poteri speciali. Il loro compito è complicato dall’arrivo di una seconda fazione dello S.H.I.E.LD. contraria all’operato di Coulson e pronta a tutto per fermare la minaccia degli Inumani.[3] Nella terza stagione Coulson e Daisy Johnson cominciano ad assemblare un gruppo segreto di Inumani, i Secret Warriors, per proteggere il mondo da nuove minacce,[4] tra cui l’antico leader inumano dell’HYDRA, Hive.[5] Nella quarta stagione, in seguito agli Accordi di Sokovia, lo S.H.I.E.L.D. viene nuovamente legittimato dal governo e Coulson torna ad essere un agente sul campo occupandosi, assieme a Mack, di rintracciare nuovi individui potenziati, tra cui Robbie Reyes / Ghost Rider.

Info File

General
Unique ID : 179882512076403542513252885103813828197 (0x87541C94F5D8E165BE28D5E696F39E65)
Complete name : Marvels.Agents.of.S.H.I.E.L.D.S04E01.ITA.ENG.DLMux.x264-sp_54321/Marvels.Agents.of.S.H.I.E.L.D.S04e01.ITA.ENG.DLMux.x264-sp_54321.mkv
Format : Matroska
Format version : Version 4 / Version 2
File size : 319 MiB
Duration : 43 min
Overall bit rate : 1 037 kb/s
Encoded date : UTC 2016-10-17 10:54:50
Writing application : mkvmerge v9.4.2 ('So High') 64bit
Writing library : libebml v1.3.4 + libmatroska v1.4.5

Video
ID : 1
Format : AVC
Format/Info : Advanced Video Codec
Format profile : [email protected]
Format settings, CABAC : Yes
Format settings, ReFrames : 5 frames
Codec ID : V_MPEG4/ISO/AVC
Duration : 43 min
Bit rate : 780 kb/s
Width : 720 pixels
Height : 400 pixels
Display aspect ratio : 16:9
Frame rate mode : Constant
Frame rate : 23.976 (23976/1000) FPS
Color space : YUV
Chroma subsampling : 4:2:0
Bit depth : 8 bits
Scan type : Progressive
Bits/(Pixel*Frame) : 0.113
Stream size : 240 MiB (75%)
Writing library : x264 core 148 r2597M e86f3a1
Encoding settings : cabac=1 / ref=5 / deblock=1:-1:-1 / analyse=0x3:0x113 / me=umh / subme=9 / psy=1 / psy_rd=1.00:0.15 / mixed_ref=1 / me_range=16 / chroma_me=1 / trellis=2 / 8x8dct=1 / cqm=0 / deadzone=21,11 / fast_pskip=1 / chroma_qp_offset=-3 / threads=12 / lookahead_threads=1 / sliced_threads=0 / nr=0 / decimate=1 / interlaced=0 / bluray_compat=0 / constrained_intra=0 / bframes=3 / b_pyramid=2 / b_adapt=2 / b_bias=0 / direct=3 / weightb=1 / open_gop=0 / weightp=2 / keyint=250 / keyint_min=23 / scenecut=40 / intra_refresh=0 / rc_lookahead=50 / rc=crf / mbtree=1 / crf=19.0 / qcomp=0.60 / qpmin=0 / qpmax=69 / qpstep=4 / ip_ratio=1.40 / aq=1:1.00
Language : English
Default : Yes
Forced : No

Audio #1
ID : 2
Format : AAC
Format/Info : Advanced Audio Codec
Format profile : LC
Codec ID : A_AAC
Duration : 43 min
Bit rate : 126 kb/s
Channel(s) : 2 channels
Channel positions : Front: L R
Sampling rate : 44.1 kHz
Frame rate : 43.066 FPS (1024 spf)
Compression mode : Lossy
Delay relative to video : -43 ms
Stream size : 38.6 MiB (12%)
Title : Italiano
Language : Italian
Default : Yes
Forced : Yes

Audio #2
ID : 3
Format : AAC
Format/Info : Advanced Audio Codec
Format profile : LC
Codec ID : A_AAC
Duration : 43 min
Bit rate : 128 kb/s
Channel(s) : 2 channels
Channel positions : Front: L R
Sampling rate : 48.0 kHz
Frame rate : 46.875 FPS (1024 spf)
Compression mode : Lossy
Delay relative to video : -43 ms
Stream size : 39.4 MiB (12%)
Title : English
Language : English
Default : No
Forced : No

Text #1
ID : 4
Format : UTF-8
Codec ID : S_TEXT/UTF8
Codec ID/Info : UTF-8 Plain Text
Duration : 42 min
Bit rate : 1 b/s
Count of elements : 8
Stream size : 343 Bytes (0%)
Title : Italiano - FORCED
Language : Italian
Default : Yes
Forced : Yes

Text #2
ID : 5
Format : UTF-8
Codec ID : S_TEXT/UTF8
Codec ID/Info : UTF-8 Plain Text
Duration : 42 min
Bit rate : 78 b/s
Count of elements : 679
Stream size : 24.4 KiB (0%)
Title : Italiano
Language : Italian
Default : No
Forced : No

Text #3
ID : 6
Format : UTF-8
Codec ID : S_TEXT/UTF8
Codec ID/Info : UTF-8 Plain Text
Duration : 41 min
Bit rate : 75 b/s
Count of elements : 723
Stream size : 22.9 KiB (0%)
Title : English
Language : English
Default : No
Forced : No

General
Complete name : Marvels.Agents.of.S.H.I.E.L.D.S04E01.ITA.ENG.DLMux.x264-sp_54321/Subs/Marvels.Agents.of.S.H.I.E.L.D.S04e01.ITA.ENG.DLMux.x264-sp_54321.en.srt
Format : SubRip
File size : 48.2 KiB

Text
Format : SubRip
Compression mode : Lossless

General
Complete name : Marvels.Agents.of.S.H.I.E.L.D.S04E01.ITA.ENG.DLMux.x264-sp_54321/Subs/Marvels.Agents.of.S.H.I.E.L.D.S04e01.ITA.ENG.DLMux.x264-sp_54321.ita.srt
Format : SubRip
File size : 50.8 KiB

Text
Format : SubRip
Compression mode : Lossless

General
Complete name : Marvels.Agents.of.S.H.I.E.L.D.S04E01.ITA.ENG.DLMux.x264-sp_54321/Subs/Marvels.Agents.of.S.H.I.E.L.D.S04e01.ITA.ENG.DLMux.x264-sp_54321.srt
Format : SubRip
File size : 650 Bytes

Text
Format : SubRip
Compression mode : Lossless

Trackers