loading...
loading...






Info

user posted image

AGENTS of S.H.I.E.L.D.
STAGIONE 4
DLMUX 1080p.: Dati Serie :.

Nazione: Stati Uniti d’America
Anno: 2013 – in produzione
Genere: azione, supereroi, fantascienza, spionaggio
Stagioni 4
Episodi: 88
Durata: 43 min circa
Lingua: ITA – ENG
Cast:
• Clark Gregg: Phil Coulson
• Ming-Na Wen: Melinda May
• Brett Dalton: Grant Ward / Hive
• Chloe Bennet: Daisy “Skye” Johnson / Quake
• Iain De Caestecker: Leo Fitz
• Elizabeth Henstridge: Jemma Simmons
• Nick Blood: Lance Hunter
• Adrianne Palicki: Bobbi Morse
• Henry Simmons: Al MacKenzie
• Luke Mitchell: Lincoln Campbell
• John Hannah: Holden Radcliffe

La quarta stagione di Agents of S.H.I.E.L.D. partirà con un salto in avanti di 6 mesi rispetto al season finale della terza serie.

Dopo il sacrificio di Hive e Lincoln, che hanno perso la vita pur di salvare il mondo, verranno finalmente rivelati numerosi misteri. Primo tra tutti il motivo che ha spinto Daisy ad abbandonare lo S.H.I.E.L.D. assieme al destino che attente tutti gli Inumani. In più, dopo l’abbandono di Phil Coulson, chi arriverà a guidare lo S.H.I.E.L.D.?

Una stagione che risolverà tutti i dubbi, ed avrà come filo conduttore il tema della vendetta. Colui che la incarnerà diventerà Ghost Rider, il meccanico scampato miracolosamente alla morte e in cerca della sua rivincita.

Info File

Marvels.Agents.of.S.H.I.E.L.D.4x01.Il.Fantasma.ITA.ENG.1080p.WEB-DLMux.H264-LittleLinX.GiuseppeiCV.mkv
Format : Matroska
Format version : Version 4 / Version 2
File size : 1.72 GiB
Duration : 41mn 15s
Overall bit rate : 5 961 Kbps
Encoded date : UTC 2016-10-12 21:40:01
Writing application : mkvmerge v7.6.0 ('Garden of Dreams') 64bit built on Feb 8 2015 15:12:28
Writing library : libebml v1.3.1 + libmatroska v1.4.2
DURATION : 00:00:14.400000000
NUMBER_OF_FRAMES : 4
NUMBER_OF_BYTES : 165
_STATISTICS_WRITING_APP : mkvmerge v7.6.0 ('Garden of Dreams') 64bit built on Feb 8 2015 15:12:28
_STATISTICS_WRITING_DATE_UTC : 2016-10-12 21:40:01
_STATISTICS_TAGS : BPS DURATION NUMBER_OF_FRAMES NUMBER_OF_BYTES

Video
ID : 1
Format : AVC
Format/Info : Advanced Video Codec
Format profile : [email protected]
Format settings, CABAC : Yes
Format settings, ReFrames : 4 frames
Codec ID : V_MPEG4/ISO/AVC
Duration : 41mn 15s
Bit rate : 5 266 Kbps
Width : 1 920 pixels
Height : 1 080 pixels
Display aspect ratio : 16:9
Frame rate : 25.000 fps
Color space : YUV
Chroma subsampling : 4:2:0
Bit depth : 8 bits
Scan type : Progressive
Bits/(Pixel*Frame) : 0.102
Stream size : 1.52 GiB (88%)
Language : English
Default : Yes
Forced : No
Color primaries : BT.709-5, BT.1361, IEC 61966-2-4, SMPTE RP177
Transfer characteristics : BT.709-5, BT.1361
Matrix coefficients : BT.709-5, BT.1361, IEC 61966-2-4 709, SMPTE RP177

Audio #1
ID : 2
Format : AC-3
Format/Info : Audio Coding 3
Mode extension : CM (complete main)
Codec ID : A_AC3
Duration : 41mn 15s
Bit rate mode : Constant
Bit rate : 192 Kbps
Channel(s) : 2 channels
Channel positions : Front: L R
Sampling rate : 48.0 KHz
Bit depth : 16 bits
Compression mode : Lossy
Stream size : 56.7 MiB (3%)
Title : ITA
Language : Italian
Default : Yes
Forced : Yes

Audio #2
ID : 3
Format : AC-3
Format/Info : Audio Coding 3
Mode extension : CM (complete main)
Codec ID : A_AC3
Duration : 41mn 15s
Bit rate mode : Constant
Bit rate : 384 Kbps
Channel(s) : 6 channels
Channel positions : Front: L C R, Side: L R, LFE
Sampling rate : 48.0 KHz
Bit depth : 16 bits
Compression mode : Lossy
Stream size : 113 MiB (6%)
Title : ENG
Language : English
Default : No
Forced : No

Text #1
ID : 4
Format : UTF-8
Codec ID : S_TEXT/UTF8
Codec ID/Info : UTF-8 Plain Text
Title : ITA - Forced
Language : Italian
Default : Yes
Forced : Yes

Text #2
ID : 5
Format : UTF-8
Codec ID : S_TEXT/UTF8
Codec ID/Info : UTF-8 Plain Text
Language : Italian
Default : No
Forced : No

Text #3
ID : 6
Format : UTF-8
Codec ID : S_TEXT/UTF8
Codec ID/Info : UTF-8 Plain Text
Language : English
Default : No
Forced : No

Trackers

http://tracker.leechers-paradise.org:6969/scrape
http://IPv6.leechers-paradise.org:6969/scrape
http://tracker.tntvillage.scambioetico.org:2710/scrape
http://tracker.tiny-vps.com:6969/scrape
http://tracker.coppersurfer.tk:6969/scrape
http://tracker.internetwarriors.net:1337/scrape
http://tracker.mg64.net:2710/scrape
http://tracker.openbittorrent.com/scrape