loading...
loading...






Info

user posted image
.: Scheda della serie :.
Ideatore Cheo Hodari Coker
Soggetto Archie Goodwin, George Tuska, Roy Thomas, John Romita Sr. (fumetto)Paese Stati Uniti d’America
Anno 2016 – in produzione
Formato serie TV
Genere azione, supereroi, crimine
Stagioni 1
Episodi 13
Durata 46-62 min (episodio)
Lingua originale inglese

Cast:
Mike Colter: Luke Cage
Mahershala Ali: Cornell “Cottonmouth” Stokes
Simone Missick: Misty Knight
Theo Rossi: Hernan “Shades” Alvarez
Erik LaRay Harvey: Willis “Diamondback” Stryker
Rosario Dawson: Claire Temple
Alfre Woodard: Mariah Dillard

.: Info :.
Marvel’s Luke Cage, nota semplicemente come Luke Cage, è una serie televisiva statunitense sviluppata da Cheo Hodari Coker per Netflix e basata sull’omonimo personaggio dei fumetti Marvel Comics. La serie è ambientata all’interno del Marvel Cinematic Universe (MCU), ed è il terzo di una serie di show che condurranno al crossover The Defenders. La serie è prodotta dalla Marvel Television in associazione con gli ABC Studios, con Coker nel ruolo di showrunner.

Protagonista della serie è Mike Colter nei panni di Cage, un ex-carcerato dotato di superforza e dalla pelle indistruttibile che combatte il crimine per le strade di New York. Fanno parte del cast anche Mahershala Ali, Simone Missick, Theo Rossi, Erik LaRay Harvey, Rosario Dawson e Alfre Woodard. Lo sviluppo della serie è cominciato a fine 2013. Nel dicembre 2014 Colter è stato scelto come interprete di Cage, che è un personaggio ricorrente in Marvel’s Jessica Jones. Nel marzo 2015 Coker è stato scelto come showrunner. Le riprese sono cominciate a New York nel settembre 2015 e sono terminate nel marzo 2016.

Tutti gli episodi della prima stagione sono stati pubblicati il 30 settembre 2016.

Dopo che un esperimento sabotato gli dona forza sovrumana e pelle indistruttibile, Luke Cage diventa un fuggitivo e cerca di ricostruire la sua vita ad Harlem, ma ben presto il passato torna a perseguitarlo.

Info File

General
Complete name : Marvels.Luke.Cage.1x02.Code.Of.The.Street.ITA.ENG.WEBMux.XviD-sp_54321/Luke.Cage.1x02.Code.Of.The.Street.ITA.ENG.WEBMux.XviD-sp_54321.avi
Format : AVI
Format/Info : Audio Video Interleave
File size : 660 MiB
Duration : 58 min
Overall bit rate : 1 576 kb/s
Movie name : Luke.Cage.1x02.code.Of.The.Street.ITA.ENG.WEBMux.XviD-sp_54321
Writing application : Lavf57.41.100

Video
ID : 0
Format : xvid
Codec ID : xvid
Duration : 58 min
Bit rate : 1 300 kb/s
Width : 720 pixels
Height : 404 pixels
Display aspect ratio : 16:9
Frame rate : 23.976 FPS
Scan type : Progressive
Bits/(Pixel*Frame) : 0.186
Stream size : 544 MiB (82%)

Audio #1
ID : 1
Format : MPEG Audio
Format version : Version 1
Format profile : Layer 3
Codec ID : 55
Codec ID/Hint : MP3
Duration : 58 min
Bit rate mode : Constant
Bit rate : 128 kb/s
Channel(s) : 2 channels
Sampling rate : 44.1 kHz
Compression mode : Lossy
Stream size : 53.6 MiB (8%)
Alignment : Aligned on interleaves
Interleave, duration : 26 ms (0.63 video frame)
Interleave, preload duration : 26 ms
Title : Italiano

Audio #2
ID : 2
Format : MPEG Audio
Format version : Version 1
Format profile : Layer 3
Mode : Joint stereo
Mode extension : MS Stereo
Codec ID : 55
Codec ID/Hint : MP3
Duration : 58 min
Bit rate mode : Constant
Bit rate : 128 kb/s
Channel(s) : 2 channels
Sampling rate : 48.0 kHz
Compression mode : Lossy
Stream size : 53.6 MiB (8%)
Alignment : Aligned on interleaves
Interleave, duration : 24 ms (0.58 video frame)
Title : English

General
Complete name : Marvels.Luke.Cage.1x02.Code.Of.The.Street.ITA.ENG.WEBMux.XviD-sp_54321/Luke.Cage.1x02.Code.Of.The.Street.ITA.ENG.WEBMux.XviD-sp_54321.en.srt
Format : SubRip
File size : 59.5 KiB

Text
Format : SubRip
Compression mode : Lossless

General
Complete name : Marvels.Luke.Cage.1x02.Code.Of.The.Street.ITA.ENG.WEBMux.XviD-sp_54321/Luke.Cage.1x02.Code.Of.The.Street.ITA.ENG.WEBMux.XviD-sp_54321.ita.srt
Format : SubRip
File size : 57.8 KiB

Text
Format : SubRip
Compression mode : Lossless

General
Complete name : Marvels.Luke.Cage.1x02.Code.Of.The.Street.ITA.ENG.WEBMux.XviD-sp_54321/Luke.Cage.1x02.Code.Of.The.Street.ITA.ENG.WEBMux.XviD-sp_54321.srt
Format : SubRip
File size : 1.27 KiB

Text
Format : SubRip
Compression mode : Lossless

Trackers

http://tracker.publicbt.com:80/
http://tracker.istole.it:80/
http://tracker.tntvillage.scambioetico.org:2710/scrape
http://open.demonii.com:1337/scrape
http://tracker.coppersurfer.tk:6969/scrape
http://tracker.openbittorrent.com/scrape