loading...
loading...






Info

user posted image
MARVE’L LUKE CAGE
STAGIONE 1
WEBMUX 720p.: Dati Serie :.Titolo originale: Marvel’s Luke Cage
Paese: USA
Anno: 2016 – in produzione
Formato: Serie TV
Genere: azione, supereroi, crimine
Stagione: 1
Episodi: 13
Durata: 60 min. (episodio)
Ideatore: JCheo Hodari Coker
Soggetto: Archie Goodwin, George Tuska, Roy Thomas, John Romita Sr. (fumetto)
Cast:
• Mike Colter: Luke Cage
• Mahershala Ali: Cornell “Cottonmouth” Stokes
• Simone Missick: Misty Knight
• Theo Rossi: “Shades”
• Alfre Woodard: Mariah Dillard

Marvel’s Luke Cage, nota semplicemente come Luke Cage, è una serie televisiva statunitense sviluppata da Cheo Hodari Coker per Netflix e basata sull’omonimo personaggio dei fumetti Marvel Comics. La serie è ambientata all’interno del Marvel Cinematic Universe (MCU), ed è il terzo di una serie di show che condurranno al crossover The Defenders. La serie è prodotta dalla Marvel Television in associazione con gli ABC Studios, con Coker nel ruolo di showrunner.

Vittima di un sabotaggio durante un esperimento, l’ex detenuto Luke Cage si ritrova con una forza sovrumana e una pelle indistruttibile. Fuggiasco, cerca di ricostruirsi una vita a New York, nel quartiere di Harlem. Ben presto, però, è costretto a uscire dall’ombra per difendere il cuore della sua città, azioni queste che lo portano a confrontarsi con un passato che aveva cercato di cancellare.

Info File

Marvels.Luke.Cage.1x01.Moment.Of.Truth.ITA.ENG.720p.WEBMux.x264-Speranzah.mkv
Format : Matroska
Format version : Version 4 / Version 2
File size : 1.60 GiB
Duration : 54mn 2s
Overall bit rate : 4 242 Kbps
Encoded date : UTC 2016-09-30 17:13:58
Writing application : mkvmerge v7.6.0 ('Garden of Dreams') 64bit built on Feb 8 2015 15:12:28
Writing library : libebml v1.3.1 + libmatroska v1.4.2
DURATION : 00:51:40.900000000
NUMBER_OF_FRAMES : 648
NUMBER_OF_BYTES : 20525
_STATISTICS_WRITING_APP : mkvmerge v7.6.0 ('Garden of Dreams') 64bit built on Feb 8 2015 15:12:28
_STATISTICS_WRITING_DATE_UTC : 2016-09-30 17:13:58
_STATISTICS_TAGS : BPS DURATION NUMBER_OF_FRAMES NUMBER_OF_BYTES

Video
ID : 1
Format : AVC
Format/Info : Advanced Video Codec
Format profile : [email protected]
Format settings, CABAC : Yes
Format settings, ReFrames : 5 frames
Codec ID : V_MPEG4/ISO/AVC
Duration : 54mn 2s
Bit rate : 3 582 Kbps
Width : 1 280 pixels
Height : 720 pixels
Display aspect ratio : 16:9
Frame rate : 23.976 fps
Color space : YUV
Chroma subsampling : 4:2:0
Bit depth : 8 bits
Scan type : Progressive
Bits/(Pixel*Frame) : 0.162
Stream size : 1.35 GiB (84%)
Writing library : x264 core 148 r2705 3f5ed56
Encoding settings : cabac=1 / ref=5 / deblock=1:-3:-3 / analyse=0x3:0x113 / me=umh / subme=8 / psy=1 / psy_rd=1.00:0.00 / mixed_ref=1 / me_range=16 / chroma_me=1 / trellis=1 / 8x8dct=1 / cqm=0 / deadzone=21,11 / fast_pskip=1 / chroma_qp_offset=-2 / threads=12 / lookahead_threads=2 / sliced_threads=0 / nr=0 / decimate=1 / interlaced=0 / bluray_compat=0 / constrained_intra=0 / bframes=3 / b_pyramid=2 / b_adapt=2 / b_bias=0 / direct=3 / weightb=1 / open_gop=0 / weightp=2 / keyint=250 / keyint_min=23 / scenecut=40 / intra_refresh=0 / rc_lookahead=50 / rc=crf / mbtree=1 / crf=18.0 / qcomp=0.60 / qpmin=0 / qpmax=69 / qpstep=4 / ip_ratio=1.40 / aq=1:1.00
Language : English
Default : Yes
Forced : No
DURATION : 00:54:02.907000000
NUMBER_OF_FRAMES : 77752
NUMBER_OF_BYTES : 1485117055
_STATISTICS_WRITING_APP : mkvmerge v7.6.0 ('Garden of Dreams') 64bit built on Feb 8 2015 15:12:28
_STATISTICS_WRITING_DATE_UTC : 2016-09-30 17:13:58
_STATISTICS_TAGS : BPS DURATION NUMBER_OF_FRAMES NUMBER_OF_BYTES
Matrix coefficients : BT.709-5, BT.1361, IEC 61966-2-4 709, SMPTE RP177

Audio #1
ID : 2
Format : AC-3
Format/Info : Audio Coding 3
Mode extension : CM (complete main)
Codec ID : A_AC3
Duration : 54mn 2s
Bit rate mode : Constant
Bit rate : 192 Kbps
Channel(s) : 2 channels
Channel positions : Front: L R
Sampling rate : 44.1 KHz
Bit depth : 16 bits
Compression mode : Lossy
Stream size : 74.2 MiB (5%)
Title : ITA
Language : Italian
Default : Yes
Forced : Yes

Audio #2
ID : 3
Format : AC-3
Format/Info : Audio Coding 3
Mode extension : CM (complete main)
Codec ID : A_AC3
Duration : 54mn 2s
Bit rate mode : Constant
Bit rate : 384 Kbps
Channel(s) : 6 channels
Channel positions : Front: L C R, Side: L R, LFE
Sampling rate : 48.0 KHz
Bit depth : 16 bits
Compression mode : Lossy
Stream size : 148 MiB (9%)
Title : ENG
Language : English
Default : No
Forced : No

Text #1
ID : 4
Format : UTF-8
Codec ID : S_TEXT/UTF8
Codec ID/Info : UTF-8 Plain Text
Title : ITA - Forced
Language : Italian
Default : Yes
Forced : Yes

Text #2
ID : 5
Format : UTF-8
Codec ID : S_TEXT/UTF8
Codec ID/Info : UTF-8 Plain Text
Language : Italian
Default : No
Forced : No

Text #3
ID : 6
Format : UTF-8
Codec ID : S_TEXT/UTF8
Codec ID/Info : UTF-8 Plain Text
Language : English
Default : No
Forced : No

Trackers

http://tracker.istole.it:80/
http://tracker.publicbt.com:80/
http://tracker.tntvillage.scambioetico.org:2710/scrape
http://open.demonii.com:1337/scrape
http://tracker.coppersurfer.tk:6969/scrape
http://tracker.openbittorrent.com/scrape