Info

Not Quite Human


6.3
IMDB: 6.3/10 767 votes

Durata: 97 min

Released:

Anno: 19 Jun 1987

Direttore:

Premi: N/A

Stato: Released

Paese: USA

Cast:




Il professor Gordon, per dare un fratello alla figlia, crea un robot che ha l’aspetto di un sedicenne e si carica ad energia elettrica. Il giovane si ritrova così a far la tipica vita dei sedicenni, se non che, un collega di Gordon, rapisce l’androide per cercare di crearne altri e utilizzarli come soldati-automi.

Trailer


Upload on Youtube

Info File

Video
ID : 1
Format : AVC
Format/Info : Advanced Video Codec
Format profile : [email protected]
Format settings, CABAC : Yes
Format settings, ReFrames : 4 frames
Codec ID : V_MPEG4/ISO/AVC
Duration : 1h 27mn
Bit rate : 1 106 Kbps
Width : 640 pixels
Height : 480 pixels
Display aspect ratio : 4:3
Frame rate mode : Constant
Frame rate : 25.000 fps
Color space : YUV
Chroma subsampling : 4:2:0
Bit depth : 8 bits
Scan type : Progressive
Bits/(Pixel*Frame) : 0.144
Stream size : 690 MiB (84%)
Writing library : x264 core 123 r2189 35cf912
Encoding settings : cabac=1 / ref=3 / deblock=1:0:0 / analyse=0x3:0x133 / me=hex / subme=7 / psy=1 / psy_rd=1.00:0.00 / mixed_ref=1 / me_range=16 / chroma_me=1 / trellis=1 / 8x8dct=1 / cqm=0 / deadzone=21,11 / fast_pskip=1 / chroma_qp_offset=-2 / threads=3 / sliced_threads=0 / nr=0 / decimate=1 / interlaced=0 / bluray_compat=0 / constrained_intra=0 / bframes=3 / b_pyramid=2 / b_adapt=1 / b_bias=0 / direct=1 / weightb=1 / open_gop=0 / weightp=2 / keyint=250 / keyint_min=25 / scenecut=40 / intra_refresh=0 / rc=cqp / mbtree=0 / qp=19 / ip_ratio=1.40 / pb_ratio=1.30 / aq=0
Default : Yes
Forced : No
DURATION : 01:27:10.360000000
NUMBER_OF_FRAMES : 130759
NUMBER_OF_BYTES : 737556613
_STATISTICS_WRITING_APP : mkvmerge v8.0.0 ('Til The Day That I Die') 64bit
_STATISTICS_WRITING_DATE_UT : 2015-06-27 23:10:02
_STATISTICS_TAGS : BPS DURATION NUMBER_OF_FRAMES NUMBER_OF_BYTES

Audio
ID : 2
Format : AC-3
Format/Info : Audio Coding 3
Mode extension : CM (complete main)
Format settings, Endianness : Big
Codec ID : A_AC3
Duration : 1h 27mn
Bit rate mode : Constant
Bit rate : 192 Kbps
Channel(s) : 2 channels
Channel positions : Front: L R
Sampling rate : 48.0 KHz
Compression mode : Lossy
Stream size : 120 MiB (14%)
Default : Yes
Forced : No
DURATION : 01:27:10.304000000
NUMBER_OF_FRAMES : 163447
NUMBER_OF_BYTES : 125527296
_STATISTICS_WRITING_APP : mkvmerge v8.0.0 ('Til The Day That I Die') 64bit
_STATISTICS_WRITING_DATE_UT : 2015-06-27 23:10:02
_STATISTICS_TAGS : BPS DURATION NUMBER_OF_FRAMES NUMBER_OF_BYTES

Immagini

Mio fratello Chip (1987), [SATrip – H264 – Ita Ac3]
Mio fratello Chip (1987), [SATrip – H264 – Ita Ac3]

Trackers

http://tracker.istole.it:80/
http://tracker.publicbt.com:80/
http://tracker.tntvillage.scambioetico.org:2710/scrape
http://open.demonii.com:1337/scrape
http://tracker.coppersurfer.tk:6969/scrape
http://tracker.openbittorrent.com/scrape