Info

Agatha Christie's Miss Marple: At Bertram's Hotel


7.6
IMDB: 7.6/10 1,064 votes

Durata: 110 min

Released:

Anno: 25 Jan 1987

Direttore:

Premi: N/A

Stato: Released

Paese: UK, USA, Australia

Cast:




La nostra infaticabile Miss Marple non riesce a liberarsi dei criminali e dei delitti neppure in vacanza! Quello che doveva essere un quieto soggiorno in uno degli hotel più rinomati di Londra si trasforma per lei in un nuovo mistero, la cui soluzione va cercata dietro le apparenze di una realtà ingannevole. Una madre, una figlia, un canonico scomparso, un portiere ucciso: troverà Jane Marple il legame fra questi personaggi, che sembrano usciti da un melodramma?

Trailer


Upload on Youtube

Info File

Video
ID : 0
Format : MPEG-4 Visual
Format settings, BVOP : 1
Format settings, QPel : No
Format settings, GMC : No warppoints
Format settings, Matrix : Default (H.263)
Muxing mode : Packed bitstream
Codec ID : DX50
Codec ID/Hint : DivX 5
Duration : 1h 45mn
Bit rate : 801 Kbps
Width : 720 pixels
Height : 576 pixels
Display aspect ratio : 5:4
Frame rate : 25.000 fps
Standard : PAL
Color space : YUV
Chroma subsampling : 4:2:0
Bit depth : 8 bits
Scan type : Progressive
Compression mode : Lossy
Bits/(Pixel*Frame) : 0.077
Stream size : 607 MiB (88%)
Writing library : DivX 5.2.1 (DrDivX 106) (UTC 2004-09-08)

Audio
ID : 1
Format : MPEG Audio
Format version : Version 1
Format profile : Layer 3
Mode : Joint stereo
Mode extension : Intensity Stereo + MS Stereo
Codec ID : 55
Codec ID/Hint : MP3
Duration : 1h 45mn
Bit rate mode : Constant
Bit rate : 96.0 Kbps
Channel(s) : 2 channels
Sampling rate : 44.1 KHz
Compression mode : Lossy
Stream size : 72.6 MiB (11%)
Alignment : Split accross interleaves
Interleave, duration : 40 ms (1.00 video frame)
Interleave, preload duration : 500 ms

Immagini

Miss Marple al Bertram Hotel (1987), [VHSrip – DviX – Ita Mp3]

Trackers

http://tracker.istole.it:80/
http://tracker.publicbt.com:80/
http://tracker.tntvillage.scambioetico.org:2710/scrape
http://open.demonii.com:1337/scrape
http://tracker.coppersurfer.tk:6969/scrape
http://tracker.openbittorrent.com/scrape