Info

user posted image

.: Scheda della serie :.
Ideatore Sam Esmail

Paese Stati Uniti d’America
Anno 2015 – in produzione
Formato serie TV
Genere thriller, drammatico
Stagioni 2
Episodi 22
Durata 40-65 min (episodio)
Lingua originale inglese

Cast:
Rami Malek: Elliot Alderson
Carly Chaikin: Darlene Alderson
Portia Doubleday: Angela Moss
Martin Wallström: Tyrell Wellick
Christian Slater: Mr. Robot
Michael Cristofer: Phillip Price
Stephanie Corneliussen: Joanna Wellick
Grace Gummer: Dominique “Dom” DiPierro

Doppiatori Italiani:
Flavio Aquilone: Elliot Alderson
Alessia Amendola: Darlene Alderson
Elena Perino: Angela Moss
Stefano Crescentini: Tyrell Wellick
Christian Iansante: Mr. Robot
Chiara Gioncardi: Joanna Wellick

.: Info :.
Mr. Robot è una serie televisiva statunitense di genere drammatico-thriller, creata dallo sceneggiatore Sam Esmail e trasmessa dall’emittente USA Network dal 24 giugno 2015. La serie ha avuto un ottimo seguito di pubblico, e ciò ha permesso al produttore, USA Network, di rinnovare la serie con una seconda stagione, che ha debuttato il 13 luglio 2016 e una terza prevista per l’estate 2017. L’episodio pilota è diretto dal regista di Uomini che odiano le donne, Niels Arden Oplev.

In Italia, la serie è trasmessa sul canale pay della piattaforma Mediaset Premium Stories e online su Infinity, a partire dal 3 marzo 2016, mentre in chiaro è trasmessa dal 15 novembre in seconda serata su Italia 1

Info File

General
Unique ID : 130994067831674378133862433165862173665 (0x628C8A2EDA394514858DD27F86EEFBE1)
Complete name : Mr.Robot.S01e01-10.ITA.ENG.576p-sp_54321/Mr.Robot.S01e01.Ciao.Amico.ITA.ENG.576p.BDMux.x264-sp_54321.mkv
Format : Matroska
Format version : Version 4 / Version 2
File size : 872 MiB
Duration : 1h 4mn
Overall bit rate : 1 878 Kbps
Writing application : Lavf57.48.103
Writing library : Lavf57.48.103

Video
ID : 1
Format : AVC
Format/Info : Advanced Video Codec
Format profile : [email protected]
Format settings, CABAC : Yes
Format settings, ReFrames : 8 frames
Codec ID : V_MPEG4/ISO/AVC
Duration : 1h 4mn
Bit rate : 1 201 Kbps
Width : 1 024 pixels
Height : 576 pixels
Display aspect ratio : 16:9
Frame rate mode : Constant
Frame rate : 23.976 fps
Color space : YUV
Chroma subsampling : 4:2:0
Bit depth : 8 bits
Scan type : Progressive
Bits/(Pixel*Frame) : 0.085
Stream size : 558 MiB (64%)
Writing library : x264 core 148 r2705 3f5ed56
Encoding settings : cabac=1 / ref=8 / deblock=1:0:0 / analyse=0x1:0x131 / me=umh / subme=9 / psy=1 / psy_rd=1.00:0.00 / mixed_ref=1 / me_range=16 / chroma_me=1 / trellis=2 / 8x8dct=0 / cqm=0 / deadzone=21,11 / fast_pskip=1 / chroma_qp_offset=-2 / threads=1 / lookahead_threads=1 / sliced_threads=0 / nr=0 / decimate=1 / interlaced=0 / bluray_compat=0 / constrained_intra=0 / bframes=3 / b_pyramid=2 / b_adapt=2 / b_bias=0 / direct=3 / weightb=1 / open_gop=0 / weightp=2 / keyint=250 / keyint_min=23 / scenecut=40 / intra_refresh=0 / rc_lookahead=60 / rc=crf / mbtree=1 / crf=18.0 / qcomp=0.60 / qpmin=0 / qpmax=69 / qpstep=4 / ip_ratio=1.40 / aq=1:1.00
Language : English
Default : Yes
Forced : No
DURATION : 01:04:55.690000000
NUMBER_OF_FRAMES : 93403
NUMBER_OF_BYTES : 5131590995
_STATISTICS_WRITING_APP : mkvmerge v8.9.0 ('Father Daughter') 64bit
_STATISTICS_WRITING_DATE_UTC : 2016-03-03 22:56:32
_STATISTICS_TAGS : BPS DURATION NUMBER_OF_FRAMES NUMBER_OF_BYTES

Audio #1
ID : 2
Format : AC-3
Format/Info : Audio Coding 3
Mode extension : CM (complete main)
Format settings, Endianness : Big
Codec ID : A_AC3
Duration : 1h 4mn
Bit rate mode : Constant
Bit rate : 192 Kbps
Channel(s) : 2 channels
Channel positions : Front: L R
Sampling rate : 48.0 KHz
Compression mode : Lossy
Stream size : 89.2 MiB (10%)
Language : Italian
Default : Yes
Forced : No
DURATION : 01:04:55.744000000
NUMBER_OF_FRAMES : 121742
NUMBER_OF_BYTES : 93497856
_STATISTICS_WRITING_APP : mkvmerge v8.9.0 ('Father Daughter') 64bit
_STATISTICS_WRITING_DATE_UTC : 2016-03-03 22:56:32
_STATISTICS_TAGS : BPS DURATION NUMBER_OF_FRAMES NUMBER_OF_BYTES

Audio #2
ID : 3
Format : AC-3
Format/Info : Audio Coding 3
Mode extension : CM (complete main)
Format settings, Endianness : Big
Codec ID : A_AC3
Duration : 1h 4mn
Bit rate mode : Constant
Bit rate : 448 Kbps
Channel(s) : 6 channels
Channel positions : Front: L C R, Side: L R, LFE
Sampling rate : 48.0 KHz
Compression mode : Lossy
Stream size : 208 MiB (24%)
Language : English
Default : No
Forced : No
DURATION : 01:04:55.744000000
NUMBER_OF_FRAMES : 121742
NUMBER_OF_BYTES : 218161664
_STATISTICS_WRITING_APP : mkvmerge v8.9.0 ('Father Daughter') 64bit
_STATISTICS_WRITING_DATE_UTC : 2016-03-03 22:56:32
_STATISTICS_TAGS : BPS DURATION NUMBER_OF_FRAMES NUMBER_OF_BYTES

Text #1
ID : 4
Format : UTF-8
Codec ID : S_TEXT/UTF8
Codec ID/Info : UTF-8 Plain Text
Title : Forced
Language : Italian
Default : Yes
Forced : Yes
DURATION : 00:56:05.479000000
NUMBER_OF_FRAMES : 18
NUMBER_OF_BYTES : 723
_STATISTICS_WRITING_APP : mkvmerge v8.9.0 ('Father Daughter') 64bit
_STATISTICS_WRITING_DATE_UTC : 2016-03-03 22:56:32
_STATISTICS_TAGS : BPS DURATION NUMBER_OF_FRAMES NUMBER_OF_BYTES

Text #2
ID : 5
Format : UTF-8
Codec ID : S_TEXT/UTF8
Codec ID/Info : UTF-8 Plain Text
Language : Italian
Default : No
Forced : No
DURATION : 01:04:21.813000000
NUMBER_OF_FRAMES : 951
NUMBER_OF_BYTES : 35897
_STATISTICS_WRITING_APP : mkvmerge v8.9.0 ('Father Daughter') 64bit
_STATISTICS_WRITING_DATE_UTC : 2016-03-03 22:56:32
_STATISTICS_TAGS : BPS DURATION NUMBER_OF_FRAMES NUMBER_OF_BYTES

Text #3
ID : 6
Format : UTF-8
Codec ID : S_TEXT/UTF8
Codec ID/Info : UTF-8 Plain Text
Language : English
Default : No
Forced : No
DURATION : 01:04:21.367000000
NUMBER_OF_FRAMES : 960
NUMBER_OF_BYTES : 31995
_STATISTICS_WRITING_APP : mkvmerge v8.9.0 ('Father Daughter') 64bit
_STATISTICS_WRITING_DATE_UTC : 2016-03-03 22:56:32
_STATISTICS_TAGS : BPS DURATION NUMBER_OF_FRAMES NUMBER_OF_BYTES

Menu
00:00:00.000 : :00:00:00.000
00:06:35.562 : :00:06:35.562
00:31:28.637 : :00:31:28.637
00:43:58.845 : :00:43:58.845

Trackers

http://tracker.leechers-paradise.org:6969/scrape
http://tracker.tntvillage.scambioetico.org:2710/scrape
http://tracker.internetwarriors.net:1337/scrape
http://tracker.tiny-vps.com:6969/scrape
http://tracker.mg64.net:2710/scrape
http://tracker.coppersurfer.tk:6969/scrape
http://IPv6.leechers-paradise.org:6969/scrape
http://tracker.openbittorrent.com/scrape