Info

user posted image
MR ROBOT
STAGIONE 2
BDMux 720p

user posted image

.: Dati Serie :.

Nazione: Stati Uniti d’America
Anno: 2015 – in produzione
Genere: thriller, thriller psicologico, drammatico
Stagione: 2
Episodi: 12
Durata: 42 min circa
Lingua: ITA – ENG
Ideatore: Sam Esmail
Cast:
• Rami Malek: Elliot Alderson
• Carly Chaikin: Darlene Alderson
• Portia Doubleday: Angela Moss
• Martin Wallström: Tyrell Wellick
• Christian Slater: Mr. Robot
• Michael Cristofer: Phillip Price
• Stephanie Corneliussen: Joanna Wellick
• Grace Gummer: Dominique “Dom” DiPierro

La seconda stagione della serie, di genere drammatico-thriller, creata dallo sceneggiatore Sam Esamail, vi garantisce tutte le risposte alle domande che vi aveva lasciato la prima stagione, e vede come regista dell’episodio principale Niels Arden O plev, autore de “Uomini che odiano le donne”.

Elliot (Rami Malek) nella vita è un esperto di sicurezza informatica che lavora a New York presso l’azienda Allsafe. È un giovane sociofobico, depresso e dipendente dalla morfina, costantemente soggetto a deliri paranoici e allucinazioni.
Nella sua vita privata è uno stalker informatico e tratta le persone, con le quali ha difficoltà a rapportarsi, come se fossero computer da hackerare, per poterne carpire i più intimi e nascosti segreti.

Il ragazzo, nella prima stagione, viene avvicinato da Mr. Robot, una misteriosa figura anarchica ed insurrezionalista a capo di un gruppo di hacktivisti conosciuti col nome di “fsociety”. Questa organizzazione si pone come obbiettivo principale di scardinare la società, cancellando il debito dei consumatori con le banche, e abbatere le grandi corporazioni che la controllano.
Mr. Robot vuole che Elliot entri a far parte del suo gruppo e, per convincerlo, promette di far fallire la E.Corporate, ritenuta responsabile di un disastro ambientale che ha causato la morte del padre di Elliot, e nonché principale cliente della Allsafe.

Il finale della stagione, accompagnato dai versi di THE HALL OF MIRRORS dei Kraftwerk, ha lasciato il pubblico con il fiato sopseso, con clamorosi colpi di scena e misteri che s’infittiscono.

Stringetevi forte… Il mondo come lo conosciamo sta per finire: la Fsociety sta tornando.

Info File

[ Info sul file ]
Mr.Robot.2x01.Il.Controllo.ITA.ENG.720p.BDMux.x264-Morpheus.mkv
Format : Matroska
Format version : Version 4 / Version 2
File size : 1.34 GiB
Duration : 38mn 45s
Overall bit rate : 4 940 Kbps
Encoded date : UTC 2017-03-23 10:51:04
Writing application : mkvmerge v7.6.0 ('Garden of Dreams') 64bit built on Feb 8 2015 15:12:28
Writing library : libebml v1.3.1 + libmatroska v1.4.2
_STATISTICS_WRITING_APP : mkvmerge v7.6.0 ('Garden of Dreams') 64bit built on Feb 8 2015 15:12:28
_STATISTICS_WRITING_DATE_UTC : 2017-03-23 10:51:04
_STATISTICS_TAGS : BPS DURATION NUMBER_OF_FRAMES NUMBER_OF_BYTES
DURATION : 00:38:44.123000000
NUMBER_OF_FRAMES : 604
NUMBER_OF_BYTES : 23718

Video
ID : 1
Format : AVC
Format/Info : Advanced Video Codec
Format profile : High@L4.1
Format settings, CABAC : Yes
Format settings, ReFrames : 5 frames
Codec ID : V_MPEG4/ISO/AVC
Duration : 38mn 45s
Bit rate : 4 190 Kbps
Width : 1 280 pixels
Height : 720 pixels
Display aspect ratio : 16:9
Frame rate : 25.000 fps
Original frame rate : 23.976 fps
Color space : YUV
Chroma subsampling : 4:2:0
Bit depth : 8 bits
Scan type : Progressive
Bits/(Pixel*Frame) : 0.182
Stream size : 1.15 GiB (86%)
Writing library : x264 core 148 r2705 3f5ed56
Encoding settings : cabac=1 / ref=5 / deblock=1:-3:-3 / analyse=0x3:0x113 / me=umh / subme=8 / psy=1 / psy_rd=1.00:0.00 / mixed_ref=1 / me_range=16 / chroma_me=1 / trellis=1 / 8x8dct=1 / cqm=0 / deadzone=21,11 / fast_pskip=1 / chroma_qp_offset=-2 / threads=18 / lookahead_threads=3 / sliced_threads=0 / nr=0 / decimate=1 / interlaced=0 / bluray_compat=0 / constrained_intra=0 / bframes=3 / b_pyramid=2 / b_adapt=2 / b_bias=0 / direct=3 / weightb=1 / open_gop=0 / weightp=2 / keyint=240 / keyint_min=24 / scenecut=40 / intra_refresh=0 / rc_lookahead=50 / rc=2pass / mbtree=1 / bitrate=4190 / ratetol=1.0 / qcomp=0.60 / qpmin=0 / qpmax=69 / qpstep=4 / cplxblur=20.0 / qblur=0.5 / ip_ratio=1.40 / aq=3:0.80
Default : Yes
Forced : No
_STATISTICS_WRITING_APP : mkvmerge v7.6.0 ('Garden of Dreams') 64bit built on Feb 8 2015 15:12:28
_STATISTICS_WRITING_DATE_UTC : 2017-03-23 10:51:04
_STATISTICS_TAGS : BPS DURATION NUMBER_OF_FRAMES NUMBER_OF_BYTES
DURATION : 00:38:45.520000000
NUMBER_OF_FRAMES : 58138
NUMBER_OF_BYTES : 1267855679

Audio #1
ID : 2
Format : AC-3
Format/Info : Audio Coding 3
Mode extension : CM (complete main)
Codec ID : A_AC3
Duration : 38mn 45s
Bit rate mode : Constant
Bit rate : 192 Kbps
Channel(s) : 2 channels
Channel positions : Front: L R
Sampling rate : 44.1 KHz
Bit depth : 16 bits
Compression mode : Lossy
Stream size : 53.2 MiB (4%)
Title : ITA
Language : Italian
Default : Yes
Forced : Yes

Audio #2
ID : 3
Format : AC-3
Format/Info : Audio Coding 3
Mode extension : CM (complete main)
Codec ID : A_AC3
Duration : 38mn 45s
Bit rate mode : Constant
Bit rate : 384 Kbps
Channel(s) : 6 channels
Channel positions : Front: L C R, Side: L R, LFE
Sampling rate : 48.0 KHz
Bit depth : 16 bits
Compression mode : Lossy
Stream size : 106 MiB (8%)
Title : ENG
Language : English
Default : No
Forced : No
_STATISTICS_WRITING_APP : mkvmerge v7.6.0 ('Garden of Dreams') 64bit built on Feb 8 2015 15:12:28
_STATISTICS_WRITING_DATE_UTC : 2017-03-23 10:51:04
_STATISTICS_TAGS : BPS DURATION NUMBER_OF_FRAMES NUMBER_OF_BYTES
DURATION : 00:38:30.437000000
NUMBER_OF_FRAMES : 530
NUMBER_OF_BYTES : 20224

Text #1
ID : 4
Format : UTF-8
Codec ID : S_TEXT/UTF8
Codec ID/Info : UTF-8 Plain Text
Title : ITA - Forced
Language : Italian
Default : Yes
Forced : Yes
_STATISTICS_WRITING_APP : mkvmerge v7.6.0 ('Garden of Dreams') 64bit built on Feb 8 2015 15:12:28
_STATISTICS_WRITING_DATE_UTC : 2017-03-23 10:51:04
_STATISTICS_TAGS : BPS DURATION NUMBER_OF_FRAMES NUMBER_OF_BYTES
DURATION : 00:38:30.437000000
NUMBER_OF_FRAMES : 597
NUMBER_OF_BYTES : 22152

Text #2
ID : 5
Format : UTF-8
Codec ID : S_TEXT/UTF8
Codec ID/Info : UTF-8 Plain Text
Language : Italian
Default : No
Forced : No

Text #3
ID : 6
Format : UTF-8
Codec ID : S_TEXT/UTF8
Codec ID/Info : UTF-8 Plain Text
Language : English
Default : No
Forced : No

Text #4
ID : 7
Format : UTF-8
Codec ID : S_TEXT/UTF8
Codec ID/Info : UTF-8 Plain Text
Title : SDH
Language : English
Default : No
Forced : No

Trackers

http://tracker.leechers-paradise.org:6969/scrape
http://tracker.tntvillage.scambioetico.org:2710/scrape
http://tracker.mg64.net:2710/scrape
http://tracker.coppersurfer.tk:6969/scrape
http://IPv6.leechers-paradise.org:6969/scrape
http://tracker.internetwarriors.net:1337/scrape
http://tracker.tiny-vps.com:6969/scrape
http://tracker.openbittorrent.com/scrape