loading...
loading...






Info

user posted image

.: Scheda della serie :.
Creatore: Chris Brancato, Carlo Bernard, Doug Miro

Cast:
Pablo Escobar, interpretato da Wagner Moura
Steve Murphy, interpretato da Boyd Holbrook
Javier Peña, interpretato da Pedro Pascal
Connie Murphy, interpretata da Joanna Christie
Gustavo Gaviria, interpretato da Juan Pablo Raba
Horatio Carrillo, interpretato da Maurice Compte
Jorge Luis Ochoa, interpretato da André Mattos
Fabio Ochoa, interpretato da Roberto Urbina
La Quica, interpretato da Diego Cataño
Poison, interpretato da Jorge A. Jimenez
Tata Escobar, interpretata da Paulina Gaitan
Valeria Vélez, interpretata da Stephanie Sigman

Storia e ambientazione:
Narcos è una serie televisiva statunitense creata da Chris Brancato, Carlo Bernard e Doug Miro[1] per Netflix.

Tutti i dieci episodi, che compongono la prima stagione, sono stati resi disponibili sulla piattaforma di streaming Netflix dal 28 agosto 2015.[2] Poco dopo la serie è stata rinnovata per una seconda stagione, composta da 10 episodi, che sarà trasmessa da Netflix dal 2 settembre 2016.[3] Tra gli interpreti principali figurano Wagner Moura, nei panni di Pablo Escobar, Pedro Pascal e Boyd Holbrook nel ruolo degli agenti sulle sue tracce.

Trama
La serie racconta la storia vera della dilagante diffusione della cocaina tra Stati Uniti ed Europa negli anni ’80, grazie al cartello di Medellín del boss della droga Pablo Escobar. Due agenti della DEA vengono incaricati di guidare una missione per catturare Escobar.

Titolo originale Narcos
Paese Stati Uniti d’America
Anno 2015 – in produzione
Formato serie TV
Genere drammatico, poliziesco
Stagioni 2
Episodi 20
Durata 43-57 min (episodio)
Lingua originale inglese, spagnolo

Info File

Narcos.2x01.Finalmente.Libero.ITA.ENG.720p.WEBMux.x264-Speranzah.mkv
Format : Matroska
Format version : Version 4 / Version 2
File size : 1.66 GiB
Duration : 52mn 44s
Overall bit rate : 4 519 Kbps
Encoded date : UTC 2016-09-02 11:53:59
Writing application : mkvmerge v7.6.0 ('Garden of Dreams') 64bit built on Feb 8 2015 15:12:28
Writing library : libebml v1.3.1 + libmatroska v1.4.2
DURATION : 00:51:29.294000000
NUMBER_OF_FRAMES : 719
NUMBER_OF_BYTES : 28492
_STATISTICS_WRITING_APP : mkvmerge v7.6.0 ('Garden of Dreams') 64bit built on Feb 8 2015 15:12:28
_STATISTICS_WRITING_DATE_UTC : 2016-09-02 11:53:59
_STATISTICS_TAGS : BPS DURATION NUMBER_OF_FRAMES NUMBER_OF_BYTES

Video
ID : 1
Format : AVC
Format/Info : Advanced Video Codec
Format profile : [email protected]
Format settings, CABAC : Yes
Format settings, ReFrames : 5 frames
Codec ID : V_MPEG4/ISO/AVC
Duration : 52mn 44s
Bit rate : 3 853 Kbps
Width : 1 280 pixels
Height : 720 pixels
Display aspect ratio : 16:9
Frame rate : 23.976 fps
Color space : YUV
Chroma subsampling : 4:2:0
Bit depth : 8 bits
Scan type : Progressive
Bits/(Pixel*Frame) : 0.174
Stream size : 1.42 GiB (85%)
Writing library : x264 core 148 r2705 3f5ed56
Encoding settings : cabac=1 / ref=5 / deblock=1:-3:-3 / analyse=0x3:0x113 / me=umh / subme=8 / psy=1 / psy_rd=1.00:0.00 / mixed_ref=1 / me_range=16 / chroma_me=1 / trellis=1 / 8x8dct=1 / cqm=0 / deadzone=21,11 / fast_pskip=1 / chroma_qp_offset=-2 / threads=12 / lookahead_threads=2 / sliced_threads=0 / nr=0 / decimate=1 / interlaced=0 / bluray_compat=0 / constrained_intra=0 / bframes=3 / b_pyramid=2 / b_adapt=2 / b_bias=0 / direct=3 / weightb=1 / open_gop=0 / weightp=2 / keyint=250 / keyint_min=23 / scenecut=40 / intra_refresh=0 / rc_lookahead=50 / rc=crf / mbtree=1 / crf=18.0 / qcomp=0.60 / qpmin=0 / qpmax=69 / qpstep=4 / ip_ratio=1.40 / aq=1:1.00
Language : English
Default : Yes
Forced : No
DURATION : 00:52:44.453000000
NUMBER_OF_FRAMES : 75871
NUMBER_OF_BYTES : 1558658926
_STATISTICS_WRITING_APP : mkvmerge v7.6.0 ('Garden of Dreams') 64bit built on Feb 8 2015 15:12:28
_STATISTICS_WRITING_DATE_UTC : 2016-09-02 11:53:59
_STATISTICS_TAGS : BPS DURATION NUMBER_OF_FRAMES NUMBER_OF_BYTES
Matrix coefficients : BT.709-5, BT.1361, IEC 61966-2-4 709, SMPTE RP177

Audio #1
ID : 2
Format : AC-3
Format/Info : Audio Coding 3
Mode extension : CM (complete main)
Codec ID : A_AC3
Duration : 52mn 44s
Bit rate mode : Constant
Bit rate : 192 Kbps
Channel(s) : 2 channels
Channel positions : Front: L R
Sampling rate : 48.0 KHz
Bit depth : 16 bits
Compression mode : Lossy
Stream size : 72.4 MiB (4%)
Title : ITA
Language : Italian
Default : Yes
Forced : Yes

Audio #2
ID : 3
Format : AC-3
Format/Info : Audio Coding 3
Mode extension : CM (complete main)
Codec ID : A_AC3
Duration : 52mn 44s
Bit rate mode : Constant
Bit rate : 384 Kbps
Channel(s) : 6 channels
Channel positions : Front: L C R, Side: L R, LFE
Sampling rate : 48.0 KHz
Bit depth : 16 bits
Compression mode : Lossy
Stream size : 145 MiB (8%)
Title : ENG
Language : English
Default : No
Forced : No

Text #1
ID : 4
Format : UTF-8
Codec ID : S_TEXT/UTF8
Codec ID/Info : UTF-8 Plain Text
Title : ITA - Forced
Language : Italian
Default : Yes
Forced : Yes

Text #2
ID : 5
Format : UTF-8
Codec ID : S_TEXT/UTF8
Codec ID/Info : UTF-8 Plain Text
Language : Italian
Default : No
Forced : No

Text #3
ID : 6
Format : UTF-8
Codec ID : S_TEXT/UTF8
Codec ID/Info : UTF-8 Plain Text
Language : English
Default : No
Forced : No

Trackers

http://tracker.istole.it:80/
http://open.demonii.com:1337/scrape
http://tracker.coppersurfer.tk:6969/scrape
http://tracker.openbittorrent.com/scrape
http://tracker.tntvillage.scambioetico.org:2710/scrape
http://tracker.publicbt.com:80/