loading...
loading...






Info

Nothing Is as It Seems


5.1
IMDB: 5.1/10 52 votes

Durata: 72 min

Released:

Anno: 22 Oct 2007

Direttore:

Premi: N/A

Stato: Released

Paese: Italy

Tagline: Diversi personaggi s'incontrano con la scusa di festeggiare il compleanno del padrone di casa, un uomo di scienza, disposto a credere, ma con molti dubbi.

Cast:




Niente è come sembra è la terza produzione cinematografica di Franco Battiato in veste di regista, presentato in anteprima nel 2007 al Festival Internazionale del Film di Roma nella sezione Extra.
Giulio Varga, anziano docente di Antropologia Culturale presso lo Iulm di Milano, vive una crisi matrimoniale che porta sua moglie a lasciarlo. Appassionato di feste etnico popolari, progetta di recarsi in un villaggio per documentare una “festa del fuoco” di origini precristiane; nella ricerca di questo luogo si perde in un bosco in cui vaga fino al sopraggiungere dell’oscurità, nella quale scorge, infine, una casa illuminata. Qui assiste ad una insolita festa di compleanno: in una stanza i convitati discutono di Metafisica, in altre si tengono letture di tarocchi ed esercizi di musica. In seguito, dopo una passeggiata ricreativa, alcuni di essi manifestano prodigi mistici, e all’ateo Giulio viene presentata la triste condizione dell’uomo, prigioniero delle proprie passioni. Il film si conclude in maniera quanto mai insolita: mentre un gruppo di persone ascolta attentamente un maestro spirituale che predica in un assolato giardino, Giulio si allontana con indifferenza per raccogliere delle ciliegie

Trailer


Upload on Youtube

Info File

Titolo originale: Niente è Come Sembra

Regia: Franco Battiato

Cast: Giulio Brogi, Chiara Conti, Pamela Villoresi, Marcello Sambati, Sonia Bergamasco, Anna Maria Gherardi, Gino Santoro, Massimo Corsaro, Paola Mandel, Alejandro Jodorowsky

Sceneggiatura: Manlio Sgalambro, Franco Battiato

Fotografia: Daniele Baldacci

Montaggio: Riccardo Sgalambro

Scenografia: Luca Volpatti

Produttore: Francesco Cattini

Produzione: L'Ottava, Bompiani

Paese: Italia

Anno: 2007

Durata: 75'

Formato: 35mm - colore

Dimensione: 5.89 GB

VIDEO

Video: MPEG-2 Video, 720x576, 25 fps
Image Ratio: 16:9 PAL
Bit rate mode : Constant
Bit rate : 7 787 Kbps
Nominal bit rate : 8 000 Kbps
Frame rate : 25.000 fps
Colorimetry : 4:2:0
Scan type : Interlaced
Scan order : Bottom Field First
Bits/(Pixel*Frame) : 0.751
Stream size : 450 MiB (91%)

AUDIO

Format : AC-3
Format/Info : Audio Coding 3
Bit rate mode : Constant
Bit rate : 448 Kbps
Channel(s) : 2 channels
Channel positions : L R
Sampling rate : 48.0 KHz
Video delay : -672ms
Stream size : 25.9 MiB (5%)

Sottotitoli:Francese, Inglese, Tedesco

Contenuti extra dvd:

Concerto di Franco Battiato

al Teatro degli Arcimboldi, Milano per il Fai - Fondo Ambiente Italiano

con la Royal Philarmonic Orchestra

direzione d'orchestra e pianoforte Carlo Guaitoli

tastiere e programmazione Angelo Privitera

produzione concerto Inetrnational Music srl

Immagini

Niente è come sembra (2007) – Franco Battiato, [DVD9 – Ita – Multisub]

Trackers

http://tracker.publicbt.com:80/
http://tracker.istole.it:80/
http://tracker.tntvillage.scambioetico.org:2710/scrape
http://open.demonii.com:1337/scrape
http://tracker.coppersurfer.tk:6969/scrape
http://tracker.openbittorrent.com/scrape