Nudo e crudo (1987), [H264 – Ita Aac]  (634.5 Mb)

Likes(0)Dislikes(0)
seeders: 1
leechers: 0








Info

Eddie Murphy: Raw


7.6
IMDB: 7.6/10 15,556 votes

Durata: 93 min

Released:

Anno: 18 Dec 1987

Direttore:

Premi: N/A

Incassi: 50504655$

Stato: Released

Paese: USA

Cast:




Si tratta della ripresa filmata di uno spettacolo tenuto a teatro dal comico statunitense. Tutto Benigni dal vivo made in Usa. Ogni tanto si ride, ma l’auto-celebrazione campeggia sull’intera operazione.

Trailer


Upload on Youtube

Info File

Video
ID : 1
Format : AVC
Format/Info : Advanced Video Codec
Format profile : Baseline@L2.1
Format settings, CABAC : No
Format settings, ReFrames : 1 frame
Codec ID : avc1
Codec ID/Info : Advanced Video Coding
Duration : 1h 23mn
Bit rate : 900 Kbps
Width : 592 pixels
Height : 320 pixels
Display aspect ratio : 1.85:1
Frame rate mode : Constant
Frame rate : 23.976 fps
Color space : YUV
Chroma subsampling : 4:2:0
Bit depth : 8 bits
Scan type : Progressive
Bits/(Pixel*Frame) : 0.198
Stream size : 539 MiB (85%)
Writing library : x264 core 120
Encoding settings : cabac=0 / ref=1 / deblock=1:0:0 / analyse=0x1:0x111 / me=hex / subme=2 / psy=1 / psy_rd=1.00:0.00 / mixed_ref=0 / me_range=16 / chroma_me=1 / trellis=0 / 8x8dct=0 / cqm=0 / deadzone=21,11 / fast_pskip=1 / chroma_qp_offset=0 / threads=6 / sliced_threads=0 / nr=0 / decimate=1 / interlaced=0 / bluray_compat=0 / constrained_intra=0 / bframes=0 / weightp=0 / keyint=250 / keyint_min=23 / scenecut=40 / intra_refresh=0 / rc_lookahead=10 / rc=abr / mbtree=1 / bitrate=900 / ratetol=1.0 / qcomp=0.60 / qpmin=0 / qpmax=69 / qpstep=4 / ip_ratio=1.40 / aq=1:1.00

Audio
ID : 2
Format : AAC
Format/Info : Advanced Audio Codec
Format profile : LC
Codec ID : 40
Duration : 1h 23mn
Bit rate mode : Variable
Bit rate : 152 Kbps
Maximum bit rate : 192 Kbps
Channel(s) : 2 channels
Channel positions : Front: L R
Sampling rate : 44.1 KHz
Compression mode : Lossy
Stream size : 91.0 MiB (14%)

Immagini

Nudo e crudo (1987), [H264 – Ita Aac]
Nudo e crudo (1987), [H264 – Ita Aac]
Nudo e crudo (1987), [H264 – Ita Aac]

Trackers

http://tracker.istole.it:80/
http://tracker.publicbt.com:80/
http://tracker.tntvillage.scambioetico.org:2710/scrape
http://open.demonii.com:1337/scrape
http://tracker.coppersurfer.tk:6969/scrape
http://tracker.openbittorrent.com/scrape