loading...
loading...






Info

user posted image

Titolo originale: Once Upon a Time
Paese: USA
Anno: 2011 – in produzione
Formato: Serie TV
Genere: fantasy, drammatico, avventura, mistero
Stagione: 6
Episodi: 133
Durata: 44 min. (episodio)
Ideatore: Edward Kitsis, Adam Horowitz
Cast:
• Ginnifer Goodwin: Biancaneve/Mary Margaret Blanchard
• Jennifer Morrison: Emma Swan
• Lana Parrilla: Regina Cattiva/Regina Mills
• Josh Dallas: Principe James “Azzurro”/David Nolan
• Jared S. Gilmore: Henry Mills
• Robert Carlyle: Tremotino/Signore Oscuro/Coccodrillo/Bestia/Signor Gold
• Raphael Sbarge: Grillo Parlante/Archibald “Archie” Hopper
• Jamie Dornan: Cacciatore/Sceriffo Graham Humbert
• Eion Bailey: Pinocchio/August Wayne Booth
• Meghan Ory: Cappuccetto Rosso/Ruby

La vita di Emma Swan è stata tutt’altro che una favola, costretta a prendersi cura di se stessa fin da bambina. Ma quando il piccolo Harry, il figlio che Emma aveva dato in affidamento 10 anni prima, si presenta alla sua porta, tutto cambia. Harry crede che Emma sia la figlia perduta di Biancaneve e del Principe Azzurro, come gli altri personaggi delle fiabe, intrappolati nella sonnolenta Storybrooke da un incantesimo della Regina del Male. Nessuno ricorda la sua vera identità ed Emma potrebbe essere la loro unica speranza di salvezza.

Info File

nce.Upon.a.Time.6x01.I.Salvatori.ITA.ENG.1080p.WEB-DLMux.H.264-Speranzah.mkv
Format : Matroska
Format version : Version 4 / Version 2
File size : 1.73 GiB
Duration : 43mn 2s
Overall bit rate : 5 763 Kbps
Encoded date : UTC 2016-10-06 21:47:54
Writing application : mkvmerge v7.6.0 ('Garden of Dreams') 64bit built on Feb 8 2015 15:12:28
Writing library : libebml v1.3.1 + libmatroska v1.4.2
_STATISTICS_WRITING_APP : mkvmerge v7.6.0 ('Garden of Dreams') 64bit built on Feb 8 2015 15:12:28
_STATISTICS_WRITING_DATE_UTC : 2016-10-06 21:47:54
_STATISTICS_TAGS : BPS DURATION NUMBER_OF_FRAMES NUMBER_OF_BYTES
DURATION : 00:42:23.123000000
NUMBER_OF_FRAMES : 635
NUMBER_OF_BYTES : 20213

Video
ID : 1
Format : AVC
Format/Info : Advanced Video Codec
Format profile : [email protected]
Format settings, CABAC : Yes
Format settings, ReFrames : 4 frames
Codec ID : V_MPEG4/ISO/AVC
Duration : 43mn 2s
Bit rate : 5 073 Kbps
Width : 1 920 pixels
Height : 1 080 pixels
Display aspect ratio : 16:9
Frame rate : 23.976 fps
Color space : YUV
Chroma subsampling : 4:2:0
Bit depth : 8 bits
Scan type : Progressive
Bits/(Pixel*Frame) : 0.102
Stream size : 1.53 GiB (88%)
Language : English
Default : Yes
Forced : No
Color primaries : BT.709-5, BT.1361, IEC 61966-2-4, SMPTE RP177
Transfer characteristics : BT.709-5, BT.1361
Matrix coefficients : BT.709-5, BT.1361, IEC 61966-2-4 709, SMPTE RP177

Audio #1
ID : 2
Format : AC-3
Format/Info : Audio Coding 3
Mode extension : CM (complete main)
Codec ID : A_AC3
Duration : 43mn 2s
Bit rate mode : Constant
Bit rate : 192 Kbps
Channel(s) : 2 channels
Channel positions : Front: L R
Sampling rate : 44.1 KHz
Bit depth : 16 bits
Compression mode : Lossy
Stream size : 59.1 MiB (3%)
Title : ITA
Language : Italian
Default : Yes
Forced : Yes

Audio #2
ID : 3
Format : AC-3
Format/Info : Audio Coding 3
Mode extension : CM (complete main)
Codec ID : A_AC3
Duration : 43mn 2s
Bit rate mode : Constant
Bit rate : 384 Kbps
Channel(s) : 6 channels
Channel positions : Front: L C R, Side: L R, LFE
Sampling rate : 48.0 KHz
Bit depth : 16 bits
Compression mode : Lossy
Stream size : 118 MiB (7%)
Title : ENG
Language : English
Default : No
Forced : No

Text #1
ID : 4
Format : UTF-8
Codec ID : S_TEXT/UTF8
Codec ID/Info : UTF-8 Plain Text
Language : Italian
Default : No
Forced : No

Text #2
ID : 5
Format : UTF-8
Codec ID : S_TEXT/UTF8
Codec ID/Info : UTF-8 Plain Text
Language : English
Default : No
Forced : No

Trackers

http://IPv6.leechers-paradise.org:6969/scrape
http://tracker.leechers-paradise.org:6969/scrape
http://tracker.tntvillage.scambioetico.org:2710/scrape
http://tracker.mg64.net:2710/scrape
http://tracker.tiny-vps.com:6969/scrape
http://tracker.internetwarriors.net:1337/scrape
http://tracker.coppersurfer.tk:6969/scrape
http://tracker.openbittorrent.com/scrape