Info

user posted image

.: Scheda della serie :.
Ideatore: Edward Kitsis, Adam Horowitz

Titolo originale Once Upon a Time
Paese Stati Uniti d’America
Anno 2011 – in produzione
Formato serie TV
Genere fantasy, drammatico, avventura, mistero
Stagioni 6
Episodi 133
Durata 43 min (episodio)
Lingua originale inglese

Cast:
Ginnifer Goodwin: Biancaneve/Mary Margaret Blanchard
Jennifer Morrison: Emma Swan
Lana Parrilla: Regina Cattiva/Regina Mills
Josh Dallas: Principe James “Azzurro”/David Nolan
Jared S. Gilmore: Henry Mills
Robert Carlyle: Tremotino/Signore Oscuro/Coccodrillo/Bestia/Signor Gold
Raphael Sbarge: Grillo Parlante/Archibald “Archie” Hopper
Jamie Dornan: Cacciatore/Sceriffo Graham Humbert
Eion Bailey: Pinocchio/August Wayne Booth
Meghan Ory: Cappuccetto Rosso/Ruby
Emilie de Ravin: Belle/Lacey French
Colin O’Donoghue: Capitan Uncino/Killian Jones
Michael Raymond-James: Baelfire/Neal Cassidy
Michael Socha: Fante di Cuori/Will Scarlet
Sean Maguire: Robin Hood
Rebecca Mader: Perfida Strega dell’Ovest/Zelena

.: Info :.
C’era una volta (Once Upon a Time) è una serie televisiva statunitense di genere fantasy, in onda sulla ABC dal 23 ottobre 2011. La serie è liberamente ispirata a leggende e ai racconti classici della letteratura fantasy e soprattutto delle fiabe, ma impostati al giorno d’oggi, facendo spesso riferimento ai film d’animazione Disney tratti dagli stessi, da cui si riprendono nomi, personaggi e luoghi specifici. Nel 2013 ne è stato tratto uno spin-off: C’era una volta nel Paese delle Meraviglie.

Adam Horowitz e Edward Kitsis avevano concepito la serie sette anni prima di unirsi allo staff di sceneggiatori di Lost, ma hanno voluto attendere la fine della serie per poter concentrarsi poi sul nuovo progetto.

Otto anni prima che l’episodio pilota di C’era una volta andasse in onda (i due avevano appena completato il lavoro su Felicity, nel 2002), Kitsis e Horowitz furono ispirati a raccontare le favole per amore del «mistero e dell’emozione nell’esplorare tanti mondi diversi». Presentarono l’idea ai network, ma fu rifiutata a causa della sua natura fantasiosa. Dall’esperienza di Lost i due impararono a guardare alla storia secondo un diverso punto di vista, cioè che «i personaggi devono prevalere sulla mitologia»; hanno spiegato: «come persona, devi vedere come quello che manca nei loro cuori o nelle loro vite è il prendersi cura di sé… Secondo noi, bisognava concentrarsi sui viaggi dei personaggi e scoprire cosa gli è stato sottratto prima di giungere a Storybrooke – approcciarci in questo modo piuttosto che basarci su uno show che gira attorno a come rompere una maledizione».

Nonostante i paragoni e le similitudini con Lost, gli autori volevano rendere i due show molto diversi. Secondo loro, Lost riguardava la redenzione, mentre C’era una volta riguarda la speranza. Nel maggio del 2011 Jane Espenson e Liz Tigelaar si sono unite alla realizzazione della serie, rispettivamente come co-produttore esecutivo e produttore consulente. Damon Lindelof ha lavorato come consulente per l’episodio pilota della serie. Kitsis ha descritto Lindelof come il «padrino» suo e di Horowitz, mentre Horowitz ha affermato che «il nome di Lindelof non è nella serie, ma in essa vi è il suo DNA», e che lui continuerà a dar loro consigli. I due ideatori hanno anche fatto notare di aver avuto dalla Disney il permesso di utilizzare i loro personaggi fiabeschi nella serie televisiva. Kitsis ha aggiunto: «potrei sbagliarmi, ma penso sia la prima volta che qualcuno ha mostrato Biancaneve con una spada, o incinta».

Per porre un distacco nella narrazione dalla storia già conosciuta dal pubblico, gli autori decisero di iniziare la puntata pilota partendo dalla fine della fiaba di Biancaneve. Furono enfatizzati i temi riguardanti famiglia e maternità, in contrasto con la focalizzazione sulla paternità presente in Lost. Kitsis e Horowitz hanno scelto di dipingere dei forti personaggi femminili, piuttosto che le classiche damigelle in pericolo. Horowitz sottolineò il loro desiderio di avvicinarsi ai diversi personaggi nello stesso modo, chiedendosi «come rendere vere queste icone, come possiamo raccontare la loro storia?»

L’episodio pilota è da intendersi come il “fulcro dell’intera serie”. Kitsis confermò la presenza, in ogni episodio, di flashback tra entrambi i mondi, perché amavano «l’idea di saltellare tra l’uno e l’altro e dare informazioni su quello che ai personaggi mancava nelle loro vite». Il desiderio degli autori di presentare un “mash up” di diversi personaggi minori può essere visto in una scena del primo episodio, in cui è mostrato un concilio di guerra con presenti Geppetto, Pinocchio e Brontolo. Horowitz spiegò: «Una delle cose più divertenti per noi è stata pensare a come questi diversi personaggi tra loro potessero interagire in modi mai mostrati prima».

Le premesse della serie ricordano molto quelle della serie a fumetti Fables di Bill Willingham, di cui l’emittente ABC aveva comprato i diritti nel 2008, ma non le fece mai superare la fase della progettazione. Horowitz e Kitsis, dopo aver letto un paio di numeri di Fables, affermarono che le basi sono le stesse, ma le due serie raccontano una storia diversa.

Il 4 febbraio 2011 la ABC ha ordinato la produzione di un episodio pilota.

Info File

General
Unique ID : 251503754872066730026804854227856966803 (0xBD35DC7BC1FEAD1D3210B52401CAC493)
Complete name : Once.Upon.A.Time.6x01-10.ITA.720p.DD5.1-NovaRip/Once.Upon.A.Time.6x01.I.Salvatori.ITA.720p.DLMux.DD5.1.x264-NovaRip.mkv
Format : Matroska
Format version : Version 2
File size : 619 MiB
Duration : 43mn 2s
Overall bit rate : 2 011 Kbps
Encoded date : UTC 2016-10-08 12:24:37
Writing application : mkvmerge v8.5.2 ('Crosses') 64bit
Writing library : libebml v1.3.3 + libmatroska v1.4.4
DURATION : 00:03:14.778000000
NUMBER_OF_FRAMES : 2
NUMBER_OF_BYTES : 31
_STATISTICS_WRITING_APP : mkvmerge v8.5.2 ('Crosses') 64bit
_STATISTICS_WRITING_DATE_UTC : 2016-10-08 12:24:37
_STATISTICS_TAGS : BPS DURATION NUMBER_OF_FRAMES NUMBER_OF_BYTES

Video
ID : 1
Format : AVC
Format/Info : Advanced Video Codec
Format profile : [email protected]
Format settings, CABAC : Yes
Format settings, ReFrames : 6 frames
Codec ID : V_MPEG4/ISO/AVC
Duration : 43mn 2s
Bit rate : 1 587 Kbps
Width : 1 280 pixels
Height : 720 pixels
Display aspect ratio : 16:9
Frame rate mode : Constant
Frame rate : 23.976 fps
Color space : YUV
Chroma subsampling : 4:2:0
Bit depth : 8 bits
Scan type : Progressive
Bits/(Pixel*Frame) : 0.072
Stream size : 489 MiB (79%)
Writing library : x264 core 148 r2665 a01e339
Encoding settings : cabac=1 / ref=6 / deblock=1:-2:-2 / analyse=0x3:0x133 / me=umh / subme=7 / psy=1 / psy_rd=1.00:0.00 / mixed_ref=1 / me_range=16 / chroma_me=1 / trellis=2 / 8x8dct=1 / cqm=0 / deadzone=21,11 / fast_pskip=0 / chroma_qp_offset=-2 / threads=6 / lookahead_threads=1 / sliced_threads=0 / nr=0 / decimate=1 / interlaced=0 / bluray_compat=0 / constrained_intra=0 / bframes=5 / b_pyramid=2 / b_adapt=2 / b_bias=0 / direct=3 / weightb=1 / open_gop=0 / weightp=2 / keyint=250 / keyint_min=23 / scenecut=40 / intra_refresh=0 / rc_lookahead=40 / rc=crf / mbtree=1 / crf=20.0 / qcomp=0.60 / qpmin=0 / qpmax=69 / qpstep=4 / ip_ratio=1.40 / aq=1:1.00
Language : English
Default : Yes
Forced : Yes

Audio
ID : 2
Format : AC-3
Format/Info : Audio Coding 3
Mode extension : CM (complete main)
Format settings, Endianness : Big
Codec ID : A_AC3
Duration : 43mn 2s
Bit rate mode : Constant
Bit rate : 384 Kbps
Channel(s) : 6 channels
Channel positions : Front: L C R, Side: L R, LFE
Sampling rate : 48.0 KHz
Bit depth : 16 bits
Compression mode : Lossy
Stream size : 118 MiB (19%)
Title : ITA
Language : Italian
Default : Yes
Forced : Yes

Text
ID : 3
Format : UTF-8
Codec ID : S_TEXT/UTF8
Codec ID/Info : UTF-8 Plain Text
Title : ITA - Forced
Language : Italian
Default : Yes
Forced : Yes

Trackers

http://tracker.leechers-paradise.org:6969/scrape
http://tracker.tntvillage.scambioetico.org:2710/scrape
http://tracker.coppersurfer.tk:6969/scrape
http://IPv6.leechers-paradise.org:6969/scrape
http://tracker.internetwarriors.net:1337/scrape
http://tracker.tiny-vps.com:6969/scrape
http://tracker.mg64.net:2710/scrape
http://tracker.openbittorrent.com/scrape