loading...
loading...






Info

user posted image

.: Dati Serie :.

Nazione: Stati Uniti d’America, Regno Unito
Anno: 2011�2016
Genere: postcyberpunk, thriller tecnologico, supereroistico, police procedural
Stagioni 5
Episodi: 103
Durata: 45 min circa
Lingua: ITA – ENG
Ideatore: Jonathan Nolan
Cast:
� Jim Caviezel: John Reese
� Michael Emerson: Harold Finch
� Taraji P. Henson: Joss Carter
� Kevin Chapman: Lionel Fusco
� Amy Acker: Root
� Sarah Shahi: Sameen Shaw

Sarebbe un mondo migliore se esistesse una macchina che potesse prevenire attentati terroristici e crimini violenti. Mr Finch (Michael Emerson), eccentrico milionario esperto di informatica, � riuscito nell’impresa.

Egli ha infatti messo a punto un sofisticato software che permette di prevenire crimini violenti non ancora accaduti.

Nei capitoli precedenti abbiamo visto John Reese (Jim Caviezel) e Harold Finch (Michael Emerson) salvare innumerevoli vite grazie all�onniscienza del loro supercomputer e alla loro squadra � il detective Lionel Fusco (Kevin Chapman), l�imprevedibile cyber-hacker Root (Amy Acker) e Sameen Shaw (Sarah Shahi) � ma una nuova minaccia sta mettendo la loro missione a rischio e le loro vite in pericolo. Per anni sono stati protetti da La Macchina, ma nel momento in cui i mondi collidono e un nemico, conosciuto come Samaritan, tenta di monopolizzarla e distruggerla, la squadra deve trovare un modo per continuare a salvare vite mentre tentano di riavviare la macchina.

Nella quinta e ultima stagione, la guerra � finita. Il mondo potrebbe sembrare lo stesso ma qualcosa � drasticamente cambiato. Dopo essere scampati alle offensive degli agenti di Samaritan, Reese, Finch e Root tornano al quartier generale con la valigetta contenente La Macchina, che per� ora � essenzialmente morta. Ce la far� Finch a ricostruire la macchina e a rimetterla in funzione? E se ce la facesse, quando torner� online sar� la stessa Macchina di prima?

�Person of Interest� � una serie televisiva statunitense prodotta dalle societ� Kilter Films, Bad Robot Productions e Warner Bros. Television. Il tema principale � � la sorveglianza tecnologica di massa all’insaputa dei cittadini �, elaborata da Jonathan Nolan gi� nel film �Il Cavaliere Oscuro�, ma affrontato in maniera poco dettagliata e per questo sviluppato successivamente in una serie televisiva.

Info File

Person.of.Interest.5x01.Morte.Apparente.ITA.ENG.720p.BDMux.x264-Speranzah.mkv
Format : Matroska
Format version : Version 4 / Version 2
File size : 1.94 GiB
Duration : 42mn 0s
Overall bit rate : 6 609 Kbps
Encoded date : UTC 2016-09-19 10:32:10
Writing application : mkvmerge v7.6.0 ('Garden of Dreams') 64bit built on Feb 8 2015 15:12:28
Writing library : libebml v1.3.1 + libmatroska v1.4.2
DURATION : 00:39:38.297000000
NUMBER_OF_FRAMES : 64
NUMBER_OF_BYTES : 2620
_STATISTICS_WRITING_APP : mkvmerge v7.6.0 ('Garden of Dreams') 64bit built on Feb 8 2015 15:12:28
_STATISTICS_WRITING_DATE_UTC : 2016-09-19 10:32:10
_STATISTICS_TAGS : BPS DURATION NUMBER_OF_FRAMES NUMBER_OF_BYTES

Video
ID : 1
Format : AVC
Format/Info : Advanced Video Codec
Format profile : [email protected]
Format settings, CABAC : Yes
Format settings, ReFrames : 9 frames
Codec ID : V_MPEG4/ISO/AVC
Duration : 42mn 0s
Bit rate : 5 901 Kbps
Width : 1 280 pixels
Height : 720 pixels
Display aspect ratio : 16:9
Frame rate : 25.000 fps
Original frame rate : 23.976 fps
Color space : YUV
Chroma subsampling : 4:2:0
Bit depth : 8 bits
Scan type : Progressive
Bits/(Pixel*Frame) : 0.256
Stream size : 1.73 GiB (89%)
Writing library : x264 core 148 r2705.16 d50a22e VietHD_Custom_64
Encoding settings : cabac=1 / ref=9 / deblock=1:-3:-3 / analyse=0x3:0x133 / me=umh / subme=10 / psy=1 / fade_compensate=0.00 / psy_rd=0.95:0.00 / mixed_ref=1 / me_range=24 / chroma_me=1 / trellis=2 / 8x8dct=1 / cqm=0 / deadzone=21,11 / fast_pskip=0 / chroma_qp_offset=-2 / threads=56 / lookahead_threads=5 / sliced_threads=0 / nr=0 / decimate=0 / interlaced=0 / bluray_compat=0 / constrained_intra=0 / fgo=0 / bframes=11 / b_pyramid=2 / b_adapt=2 / b_bias=0 / direct=3 / weightb=1 / open_gop=0 / weightp=2 / keyint=250 / keyint_min=23 / scenecut=40 / intra_refresh=0 / rc_lookahead=60 / rc=crf / mbtree=0 / crf=17.7000 / qcomp=0.65 / qpmin=0:0:0 / qpmax=69:69:69 / qpstep=4 / vbv_maxrate=62500 / vbv_bufsize=78125 / crf_max=0.0 / nal_hrd=none / filler=0 / ip_ratio=1.30 / pb_ratio=1.20 / aq=3:0.85 / aq-sensitivity=10.00 / aq-factor=1.00:1.00:1.00 / aq2=0 / aq3=0
Language : English
Default : Yes
Forced : No
DURATION : 00:42:00.840000000
NUMBER_OF_FRAMES : 63021
NUMBER_OF_BYTES : 1900199087
_STATISTICS_WRITING_APP : mkvmerge v7.6.0 ('Garden of Dreams') 64bit built on Feb 8 2015 15:12:28
_STATISTICS_WRITING_DATE_UTC : 2016-09-19 10:32:10
_STATISTICS_TAGS : BPS DURATION NUMBER_OF_FRAMES NUMBER_OF_BYTES

Audio #1
ID : 2
Format : AC-3
Format/Info : Audio Coding 3
Mode extension : CM (complete main)
Codec ID : A_AC3
Duration : 42mn 0s
Bit rate mode : Constant
Bit rate : 192 Kbps
Channel(s) : 2 channels
Channel positions : Front: L R
Sampling rate : 48.0 KHz
Bit depth : 16 bits
Compression mode : Lossy
Stream size : 57.7 MiB (3%)
Title : ITA
Language : Italian
Default : Yes
Forced : Yes

Audio #2
ID : 3
Format : AC-3
Format/Info : Audio Coding 3
Mode extension : CM (complete main)
Codec ID : A_AC3
Duration : 42mn 0s
Bit rate mode : Constant
Bit rate : 384 Kbps
Channel(s) : 6 channels
Channel positions : Front: L C R, Side: L R, LFE
Sampling rate : 48.0 KHz
Bit depth : 16 bits
Compression mode : Lossy
Stream size : 115 MiB (6%)
Title : ENG
Language : English
Default : No
Forced : No

Text #1
ID : 4
Format : UTF-8
Codec ID : S_TEXT/UTF8
Codec ID/Info : UTF-8 Plain Text
Title : ITA - Forced
Language : Italian
Default : Yes
Forced : Yes

Text #2
ID : 5
Format : UTF-8
Codec ID : S_TEXT/UTF8
Codec ID/Info : UTF-8 Plain Text
Language : Italian
Default : No
Forced : No

Text #3
ID : 6
Format : UTF-8
Codec ID : S_TEXT/UTF8
Codec ID/Info : UTF-8 Plain Text
Language : English
Default : No
Forced : No

Text #4
ID : 7
Format : UTF-8
Codec ID : S_TEXT/UTF8
Codec ID/Info : UTF-8 Plain Text
Language : English
Default : No
Forced : No

Trackers

http://tracker.publicbt.com:80/
http://tracker.istole.it:80/
http://tracker.tntvillage.scambioetico.org:2710/scrape
http://open.demonii.com:1337/scrape
http://tracker.coppersurfer.tk:6969/scrape
http://tracker.openbittorrent.com/scrape