loading...
loading...






Info

Pollock


7.0
IMDB: 7.0/10 22,906 votes

Durata: 122 min

Released:

Anno: 23 Mar 2001

Direttore:

Premi: Won 1 Oscar. Another 2 wins & 9 nominations.

Stato: Released

Paese: USA

Cast:




Gli ultimi due anni della vita e della carriera del pittore americano Jackson Pollock, esponente di punta dell’espressionismo astratto, periodo in cui gli è accanto la moglie Lee Krasner, anche lei affermata pittrice. La comune passione per l’arte cementa il loro amore che però è messo in crisi dalla depressione, dalle sbronze e anche dai tradimenti di lui. Nonostante il successo raggiunto Pollock era in preda a tali tormenti che lo spinsero a cercare rifugio nell’alcol. Nell’agosto del 1949, il periodico ‘Life Magazine’ si chiedeva:”Jackson Pollock è il più grande pittore vivente degli Stati Uniti?” Era infatti fra i più noti artisti americani, ma la sua anima tormentata – che probabilmente lo aveva spinto a dipingere – lo portò all………..

Trailer


Upload on Youtube

Info File

Video
ID : 0
Format : MPEG-4 Visual
Format profile : Advanced [email protected]
Format settings, BVOP : Yes
Format settings, QPel : No
Format settings, GMC : No warppoints
Format settings, Matrix : Custom
Codec ID : XVID
Codec ID/Hint : XviD
Duration : 1h 58mn
Bit rate : 1 338 Kbps
Width : 672 pixels
Height : 368 pixels
Display aspect ratio : 16:9
Frame rate : 25.000 fps
Color space : YUV
Chroma subsampling : 4:2:0
Bit depth : 8 bits
Scan type : Progressive
Bits/(Pixel*Frame) : 0.216
Stream size : 1.11 GiB (60%)
Writing library : XviD 1.2.1 (UTC 2008-12-04)

Audio #1
ID : 1
Format : AC-3
Format/Info : Audio Coding 3
Mode extension : CM (complete main)
Codec ID : 2000
Duration : 1h 58mn
Bit rate mode : Constant
Bit rate : 448 Kbps
Channel(s) : 6 channels
Channel positions : Front: L C R, Side: L R, LFE
Sampling rate : 48.0 KHz
Bit depth : 16 bits
Stream size : 379 MiB (20%)
Alignment : Aligned on interleaves
Interleave, duration : 96 ms (2.40 video frames)
Interleave, preload duration : 96 ms
Language : Italian

Immagini

Pollock (2000), [XviD – Ita Eng Ac3 5.1 – Sub Ita Eng]
Pollock (2000), [XviD – Ita Eng Ac3 5.1 – Sub Ita Eng]
Pollock (2000), [XviD – Ita Eng Ac3 5.1 – Sub Ita Eng]
Pollock (2000), [XviD – Ita Eng Ac3 5.1 – Sub Ita Eng]
Pollock (2000), [XviD – Ita Eng Ac3 5.1 – Sub Ita Eng]
Pollock (2000), [XviD – Ita Eng Ac3 5.1 – Sub Ita Eng]
Pollock (2000), [XviD – Ita Eng Ac3 5.1 – Sub Ita Eng]

Trackers

http://tracker.publicbt.com:80/
http://tracker.istole.it:80/
http://open.demonii.com:1337/scrape
http://tracker.tntvillage.scambioetico.org:2710/scrape
http://tracker.coppersurfer.tk:6969/scrape
http://tracker.openbittorrent.com/scrape