Info

Predator


7.8
IMDB: 7.8/10 303,612 votes

Durata: 107 min

Released:

Anno: 12 Jun 1987

Direttore:

Premi: Nominated for 1 Oscar. Another 3 wins & 4 nominations.

Budget: 18000000$

Incassi: 98235548$

Stato: Released

Paese: USA

Tagline: La guerra era la sua professione .... questa volta non è guerra ma qualcosa di peggio!

Cast:




Una misteriosa astronave si dirige verso la Terra e, in prossimità dell’atmosfera, sgancia una capsula verso un punto imprecisato nella giungla dell’America Centrale……..

Trailer


Upload on Youtube

Info File

Video
ID : 0
Format : MPEG-4 Visual
Format profile : [email protected]
Format settings, BVOP : No
Format settings, QPel : No
Format settings, GMC : No warppoints
Format settings, Matrix : Default (H.263)
Codec ID : XVID
Codec ID/Hint : XviD
Duration : 1h 46mn
Bit rate : 1 502 Kbps
Width : 720 pixels
Height : 386 pixels
Display aspect ratio : 1.858
Frame rate : 23.976 fps
Color space : YUV
Chroma subsampling : 4:2:0
Bit depth : 8 bits
Scan type : Progressive
Compression mode : Lossy
Bits/(Pixel*Frame) : 0.225
Stream size : 1.12 GiB (62%)
Writing library : XviD 64

Audio #1
ID : 1
Format : AC-3
Format/Info : Audio Coding 3
Mode extension : CM (complete main)
Codec ID : 2000
Duration : 1h 46mn
Bit rate mode : Constant
Bit rate : 448 Kbps
Channel(s) : 6 channels
Channel positions : Front: L C R, Side: L R, LFE
Sampling rate : 48.0 KHz
Bit depth : 16 bits
Compression mode : Lossy
Stream size : 342 MiB (19%)
Alignment : Split accross interleaves
Interleave, duration : 42 ms (1.00 video frame)
Interleave, preload duration : 500 ms

Immagini

Predator (1987), [XviD – Ita Eng Ac3 5.1 – Sub Ita Eng]
Predator (1987), [XviD – Ita Eng Ac3 5.1 – Sub Ita Eng]
Predator (1987), [XviD – Ita Eng Ac3 5.1 – Sub Ita Eng]
Predator (1987), [XviD – Ita Eng Ac3 5.1 – Sub Ita Eng]
Predator (1987), [XviD – Ita Eng Ac3 5.1 – Sub Ita Eng]
Predator (1987), [XviD – Ita Eng Ac3 5.1 – Sub Ita Eng]
Predator (1987), [XviD – Ita Eng Ac3 5.1 – Sub Ita Eng]
Predator (1987), [XviD – Ita Eng Ac3 5.1 – Sub Ita Eng]
Predator (1987), [XviD – Ita Eng Ac3 5.1 – Sub Ita Eng]
Predator (1987), [XviD – Ita Eng Ac3 5.1 – Sub Ita Eng]
Predator (1987), [XviD – Ita Eng Ac3 5.1 – Sub Ita Eng]
Predator (1987), [XviD – Ita Eng Ac3 5.1 – Sub Ita Eng]
Predator (1987), [XviD – Ita Eng Ac3 5.1 – Sub Ita Eng]
Predator (1987), [XviD – Ita Eng Ac3 5.1 – Sub Ita Eng]
Predator (1987), [XviD – Ita Eng Ac3 5.1 – Sub Ita Eng]
Predator (1987), [XviD – Ita Eng Ac3 5.1 – Sub Ita Eng]
Predator (1987), [XviD – Ita Eng Ac3 5.1 – Sub Ita Eng]
Predator (1987), [XviD – Ita Eng Ac3 5.1 – Sub Ita Eng]
Predator (1987), [XviD – Ita Eng Ac3 5.1 – Sub Ita Eng]
Predator (1987), [XviD – Ita Eng Ac3 5.1 – Sub Ita Eng]
Predator (1987), [XviD – Ita Eng Ac3 5.1 – Sub Ita Eng]
Predator (1987), [XviD – Ita Eng Ac3 5.1 – Sub Ita Eng]
Predator (1987), [XviD – Ita Eng Ac3 5.1 – Sub Ita Eng]
Predator (1987), [XviD – Ita Eng Ac3 5.1 – Sub Ita Eng]
Predator (1987), [XviD – Ita Eng Ac3 5.1 – Sub Ita Eng]
Predator (1987), [XviD – Ita Eng Ac3 5.1 – Sub Ita Eng]
Predator (1987), [XviD – Ita Eng Ac3 5.1 – Sub Ita Eng]
Predator (1987), [XviD – Ita Eng Ac3 5.1 – Sub Ita Eng]
Predator (1987), [XviD – Ita Eng Ac3 5.1 – Sub Ita Eng]
Predator (1987), [XviD – Ita Eng Ac3 5.1 – Sub Ita Eng]

Trackers

http://tracker.istole.it:80/
http://tracker.publicbt.com:80/
http://tracker.tntvillage.scambioetico.org:2710/scrape
http://open.demonii.com:1337/scrape
http://tracker.coppersurfer.tk:6969/scrape
http://tracker.openbittorrent.com/scrape

Torrent correlati

Torrent Name Dimm. Creato Seed Leech
comment icon
1.25 Gb 9 mesi fa 6 0
comment icon
706.32 Mb 2 mesi fa 0 2
comment icon
700.41 Mb 9 mesi fa 0 0
comment icon
400.86 Mb 10 mesi fa 1 0
comment icon
1.37 Gb 3 mesi fa 7 0