loading...
loading...






Info

Prisoner/Terrorist


6.3
IMDB: 6.3/10 31 votes

Durata: 113 min

Released:

Anno: 03 Feb 2007

Direttore:

Premi: N/A

Stato: Released

Paese: Japan

Cast:




Durante un attacco kamikaze a un aeroporto, la bomba a mano di M, uno dei tre terroristi, non funziona a dovere e l’uomo viene catturato. Sottoposto a maltrattamenti in carcere, M a poco a poco perde la sua presa sulla realtà ed è costretto a confrontarsi con le proprie convinzioni ideologiche.

Trailer


Upload on Youtube

Info File

Format : AVI
Format/Info : Audio Video Interleave
File size : 715 MiB
Duration : 1h 52mn
Overall bit rate mode : Variable
Overall bit rate : 885 Kbps
Writing application : MEncoder r33883
Writing library : MPlayer

Video
ID : 0
Format : MPEG-4 Visual
Format profile : [email protected]
Format settings, BVOP : No
Format settings, QPel : No
Format settings, GMC : No warppoints
Format settings, Matrix : Default (H.263)
Codec ID : XVID
Codec ID/Hint : XviD
Duration : 1h 52mn
Bit rate : 751 Kbps
Width : 512 pixels
Height : 384 pixels
Display aspect ratio : 4:3
Frame rate : 25.000 fps
Color space : YUV
Chroma subsampling : 4:2:0
Bit depth : 8 bits
Scan type : Progressive
Compression mode : Lossy
Bits/(Pixel*Frame) : 0.153
Stream size : 606 MiB (85%)
Writing library : XviD 63

Audio
ID : 1
Format : MPEG Audio
Format version : Version 1
Format profile : Layer 3
Mode : Joint stereo
Mode extension : MS Stereo
Codec ID : 55
Codec ID/Hint : MP3
Duration : 1h 52mn
Bit rate mode : Variable
Bit rate : 122 Kbps
Channel(s) : 2 channels
Sampling rate : 44.1 KHz
Compression mode : Lossy
Stream size : 98.6 MiB (14%)
Alignment : Aligned on interleaves
Interleave, duration : 26 ms (0.65 video frame)
Interleave, preload duration : 495 ms

Immagini

Prigioniero Terrorista (2007), [DTTrip – XviD – Jap Mp3 – HardSub Ita]

Trackers

http://tracker.istole.it:80/
http://tracker.publicbt.com:80/
http://tracker.tntvillage.scambioetico.org:2710/scrape
http://open.demonii.com:1337/scrape
http://tracker.coppersurfer.tk:6969/scrape
http://tracker.openbittorrent.com/scrape