loading...
loading...






Info

user posted image

Nazione: United States
Anno: 2015 in produzione
Genere: drammatico, thriller
Stagioni: 2
Episodi: 44
Durata: 43 min circa
Lingua: ITA – ENG
Cast:
• Priyanka Chopra: Alex Parrish
• Josh Hopkins: Liam O’Connor
• Jake McLaughlin: Ryan Booth
• Aunjanue Ellis: Miranda Shaw
• Yasmine Al Masri: Nimah e Raina Amin
• Johanna Braddy: Shelby Wyatt
• Tate Ellington: Simon Asher
• Graham Rogers: Caleb Haas
• Anabelle Acosta: Natalie Vazquez

.: Trama :.

La seconda stagione prende il via dalla sofferta decisione di Alex: abbandonare definitivamente l’ente investigativo e lasciarsi alle spalle la sua vecchia vita. Una pausa che verrà messa subito in discussione da una nuova proposta. Alex verrà infatti invitata dal misterioso Matthew Keyes ad addestrarsi ed entrare a far parte della CIA con il compito di salvare l’agenzia di spionaggio americana da un attacco informatico.

Tra le novità, da segnalare l’ingresso nel cast di Blair Underwood (già in Agents of S.H.I.E.L.D., Deep Impact) che ricoprirà il ruolo di Owen Hall, un agente della CIA dal passato misterioso.

Per Alex e Ryan l’attesa è terminata. È finalmente giunto il momento di tornare in azione.

Info File

Quantico.2x01.Kudove.ITA.ENG.1080p.WEB-DLMux.H.264-Speranzah.mkv
Format : Matroska
Format version : Version 4 / Version 2
File size : 1.71 GiB
Duration : 41mn 10s
Overall bit rate : 5 959 Kbps
Encoded date : UTC 2016-11-08 21:46:58
Writing application : mkvmerge v7.6.0 ('Garden of Dreams') 64bit built on Feb 8 2015 15:12:28
Writing library : libebml v1.3.1 + libmatroska v1.4.2
DURATION : 00:40:34.428000000
NUMBER_OF_FRAMES : 758
NUMBER_OF_BYTES : 29055
_STATISTICS_WRITING_APP : mkvmerge v7.6.0 ('Garden of Dreams') 64bit built on Feb 8 2015 15:12:28
_STATISTICS_WRITING_DATE_UTC : 2016-11-08 21:46:58
_STATISTICS_TAGS : BPS DURATION NUMBER_OF_FRAMES NUMBER_OF_BYTES

Video
ID : 1
Format : AVC
Format/Info : Advanced Video Codec
Format profile : [email protected]
Format settings, CABAC : Yes
Format settings, ReFrames : 4 frames
Codec ID : V_MPEG4/ISO/AVC
Duration : 41mn 10s
Bit rate : 5 265 Kbps
Width : 1 920 pixels
Height : 1 080 pixels
Display aspect ratio : 16:9
Frame rate : 25.000 fps
Color space : YUV
Chroma subsampling : 4:2:0
Bit depth : 8 bits
Scan type : Progressive
Bits/(Pixel*Frame) : 0.102
Stream size : 1.51 GiB (88%)
Language : English
Default : Yes
Forced : No
Color primaries : BT.709-5, BT.1361, IEC 61966-2-4, SMPTE RP177
Transfer characteristics : BT.709-5, BT.1361
Matrix coefficients : BT.709-5, BT.1361, IEC 61966-2-4 709, SMPTE RP177

Audio #1
ID : 2
Format : AC-3
Format/Info : Audio Coding 3
Mode extension : CM (complete main)
Codec ID : A_AC3
Duration : 41mn 10s
Bit rate mode : Constant
Bit rate : 192 Kbps
Channel(s) : 2 channels
Channel positions : Front: L R
Sampling rate : 44.1 KHz
Bit depth : 16 bits
Compression mode : Lossy
Stream size : 56.5 MiB (3%)
Title : ITA
Language : Italian
Default : Yes
Forced : Yes

Audio #2
ID : 3
Format : AC-3
Format/Info : Audio Coding 3
Mode extension : CM (complete main)
Codec ID : A_AC3
Duration : 41mn 10s
Bit rate mode : Constant
Bit rate : 384 Kbps
Channel(s) : 6 channels
Channel positions : Front: L C R, Side: L R, LFE
Sampling rate : 48.0 KHz
Bit depth : 16 bits
Compression mode : Lossy
Stream size : 113 MiB (6%)
Title : ENG
Language : English
Default : No
Forced : No

Text #1
ID : 4
Format : UTF-8
Codec ID : S_TEXT/UTF8
Codec ID/Info : UTF-8 Plain Text
Title : ITA - Forced
Language : Italian
Default : Yes
Forced : Yes

Text #2
ID : 5
Format : UTF-8
Codec ID : S_TEXT/UTF8
Codec ID/Info : UTF-8 Plain Text
Language : Italian
Default : No
Forced : No

Text #3
ID : 6
Format : UTF-8
Codec ID : S_TEXT/UTF8
Codec ID/Info : UTF-8 Plain Text
Language : English
Default : No
Forced : No

Trackers

http://IPv6.leechers-paradise.org:6969/scrape
http://tracker.leechers-paradise.org:6969/scrape
http://tracker.mg64.net:2710/scrape
http://tracker.tiny-vps.com:6969/scrape
http://tracker.tntvillage.scambioetico.org:2710/scrape
http://tracker.coppersurfer.tk:6969/scrape
http://tracker.internetwarriors.net:1337/scrape
http://tracker.openbittorrent.com/scrape