loading...
loading...






Info

Quantum of Solace


6.7
IMDB: 6.7/10 336,310 votes

Durata: 106 min

Released:

Anno: 14 Nov 2008

Direttore:

Premi: Nominated for 2 BAFTA Film Awards. Another 4 wins & 29 nominations.

Budget: 200000000$

Incassi: 586090727$

Stato: Released

Paese: UK, USA

Cast:




La scena iniziale vede James Bond alla guida della sua Aston Martin scappare dagli inseguitori che gli danno la caccia per liberare Mr. White, imprigionato e legato nel vano posteriore della macchina. Dopo essersi liberato dagli inseguitori, Bond giunge a Siena, dove incontra M: i due interrogano Mr. White al fine di ottenere maggiori informazioni su Quantum, un’organizzazione terroristica di cui l’MI6 non sa praticamente niente. Una delle guardie del corpo di M, Mitchell, si rivela però un infiltrato e attacca M, consentendo a Mr. White di fuggire. Dopo aver ucciso l’infiltrato, Bond torna a Londra e scopre che Mitchell aveva contatti ad Haiti. È qui dunque che si dirige, identificando questo contatto con la persona di Edumund Slate, un killer ingaggiato per uccidere Camille Montes, amante del facoltoso imprenditore ambientalista Dominic Greene. Bond uccide Slate; ciò gli consente di seguire Camille e di capire che Greene sta aiutando un generale esiliato dell’esercito boliviano – il Generale Medrano – a prendere il potere con un colpo di stato, in cambio di un apparentemente insignificante e improduttivo deserto…………………

Trailer


Upload on Youtube

Info File

Complete name : Quantum of solace (2007)\Quantum of solace (2007).avi
Format : AVI
Format/Info : Audio Video Interleave
File size : 1.66 GiB
Duration : 1h 41mn
Overall bit rate : 2 333 Kbps
Writing application : VirtualDubMod 1.5.4.1 (build 2178/release)
Writing library : VirtualDubMod build 2178/release

Video
ID : 0
Format : MPEG-4 Visual
Format profile : Advanced [email protected]
Format settings, BVOP : Yes
Format settings, QPel : No
Format settings, GMC : No warppoints
Format settings, Matrix : Custom
Codec ID : XVID
Codec ID/Hint : XviD
Duration : 1h 41mn
Bit rate : 1 492 Kbps
Width : 720 pixels
Height : 304 pixels
Display aspect ratio : 2.35:1
Frame rate : 25.000 fps
Color space : YUV
Chroma subsampling : 4:2:0
Bit depth : 8 bits
Scan type : Progressive
Bits/(Pixel*Frame) : 0.273
Stream size : 1.06 GiB (64%)
Writing library : XviD 1.2.1 (UTC 2008-12-04)

Audio #1
ID : 1
Format : AC-3
Format/Info : Audio Coding 3
Mode extension : CM (complete main)
Codec ID : 2000
Duration : 1h 41mn
Bit rate mode : Constant
Bit rate : 384 Kbps
Channel(s) : 6 channels
Channel positions : Front: L C R, Side: L R, LFE
Sampling rate : 48.0 KHz
Bit depth : 16 bits
Stream size : 280 MiB (16%)
Alignment : Aligned on interleaves
Interleave, duration : 96 ms (2.40 video frames)
Interleave, preload duration : 96 ms
Language : Italian

Audio #2
ID : 2
Format : AC-3
Format/Info : Audio Coding 3
Mode extension : CM (complete main)
Codec ID : 2000
Duration : 1h 41mn
Bit rate mode : Constant
Bit rate : 448 Kbps
Channel(s) : 6 channels
Channel positions : Front: L C R, Side: L R, LFE
Sampling rate : 48.0 KHz
Bit depth : 16 bits
Stream size : 326 MiB (19%)
Alignment : Aligned on interleaves
Interleave, duration : 96 ms (2.40 video frames)
Interleave, preload duration : 96 ms
Language : English

Immagini

Quantum of solace (2007), [XviD – Ita Eng Ac3 5.1 – Sub Ita Eng]
Quantum of solace (2007), [XviD – Ita Eng Ac3 5.1 – Sub Ita Eng]
Quantum of solace (2007), [XviD – Ita Eng Ac3 5.1 – Sub Ita Eng]
Quantum of solace (2007), [XviD – Ita Eng Ac3 5.1 – Sub Ita Eng]
Quantum of solace (2007), [XviD – Ita Eng Ac3 5.1 – Sub Ita Eng]
Quantum of solace (2007), [XviD – Ita Eng Ac3 5.1 – Sub Ita Eng]
Quantum of solace (2007), [XviD – Ita Eng Ac3 5.1 – Sub Ita Eng]
Quantum of solace (2007), [XviD – Ita Eng Ac3 5.1 – Sub Ita Eng]
Quantum of solace (2007), [XviD – Ita Eng Ac3 5.1 – Sub Ita Eng]
Quantum of solace (2007), [XviD – Ita Eng Ac3 5.1 – Sub Ita Eng]
Quantum of solace (2007), [XviD – Ita Eng Ac3 5.1 – Sub Ita Eng]
Quantum of solace (2007), [XviD – Ita Eng Ac3 5.1 – Sub Ita Eng]
Quantum of solace (2007), [XviD – Ita Eng Ac3 5.1 – Sub Ita Eng]
Quantum of solace (2007), [XviD – Ita Eng Ac3 5.1 – Sub Ita Eng]
Quantum of solace (2007), [XviD – Ita Eng Ac3 5.1 – Sub Ita Eng]
Quantum of solace (2007), [XviD – Ita Eng Ac3 5.1 – Sub Ita Eng]
Quantum of solace (2007), [XviD – Ita Eng Ac3 5.1 – Sub Ita Eng]
Quantum of solace (2007), [XviD – Ita Eng Ac3 5.1 – Sub Ita Eng]
Quantum of solace (2007), [XviD – Ita Eng Ac3 5.1 – Sub Ita Eng]
Quantum of solace (2007), [XviD – Ita Eng Ac3 5.1 – Sub Ita Eng]
Quantum of solace (2007), [XviD – Ita Eng Ac3 5.1 – Sub Ita Eng]
Quantum of solace (2007), [XviD – Ita Eng Ac3 5.1 – Sub Ita Eng]
Quantum of solace (2007), [XviD – Ita Eng Ac3 5.1 – Sub Ita Eng]
Quantum of solace (2007), [XviD – Ita Eng Ac3 5.1 – Sub Ita Eng]
Quantum of solace (2007), [XviD – Ita Eng Ac3 5.1 – Sub Ita Eng]
Quantum of solace (2007), [XviD – Ita Eng Ac3 5.1 – Sub Ita Eng]

Trackers

http://tracker.istole.it:80/
http://tracker.publicbt.com:80/
http://open.demonii.com:1337/scrape
http://tracker.tntvillage.scambioetico.org:2710/scrape
http://tracker.coppersurfer.tk:6969/scrape
http://tracker.openbittorrent.com/scrape