Info

The Cabin in the Woods


7.0
IMDB: 7.0/10 286,655 votes

Durata: 95 min

Released:

Anno: 13 Apr 2012

Direttore:

Premi: 18 wins & 33 nominations.

Budget: 30000000$

Incassi: 66486080$

Stato: Released

Paese: USA

Tagline: Tu credi di conoscere la storia

Cast:




L’accoglienza critica di tutto il mondo è stata una delle più entusiaste per una pellicola horror degli anni 2000, tanto per la capacità di mescolare insieme orrore e comicità in un modo unico e senza precedenti, quanto perché riesce a reinterpretare vividamente un gore che sembrava oramai perduto a relegato alla zona dei B-movies. Ma la vera peculiarità di Quella casa nel bosco è il riuscire ad essere la prima pellicola che dando per assodato l’intero filone degli horror postmoderni, che culminava con Scream 4 di Wes Craven, portandoli alle estreme conseguenze e mostrandone i meccanismi elementari rende possibile una nuova forma di orrore che ritorna al tessuto della storia narrata

Trailer


Upload on Youtube

Info File

Video
ID : 0
Format : MPEG-4 Visual
Format profile : Advanced Simple@L5
Format settings, BVOP : No
Format settings, QPel : No
Format settings, GMC : No warppoints
Format settings, Matrix : Custom
Codec ID : XVID
Codec ID/Hint : XviD
Duration : 1h 31mn
Bit rate : 1 476 Kbps
Width : 720 pixels
Height : 304 pixels
Display aspect ratio : 2.35:1
Frame rate : 25.000 fps
Color space : YUV
Chroma subsampling : 4:2:0
Bit depth : 8 bits
Scan type : Progressive
Bits/(Pixel*Frame) : 0.270
Stream size : 968 MiB (62%)
Writing library : XviD 1.2.1 (UTC 2008-12-04)

Audio #1
ID : 1
Format : AC-3
Format/Info : Audio Coding 3
Mode extension : CM (complete main)
Codec ID : 2000
Duration : 1h 31mn
Bit rate mode : Constant
Bit rate : 448 Kbps
Channel(s) : 6 channels
Channel positions : Front: L C R, Side: L R, LFE
Sampling rate : 48.0 KHz
Bit depth : 16 bits
Video delay : 80ms
Stream size : 294 MiB (19%)
Alignment : Split accross interleaves
Interleave, duration : 96 ms (2.40 video frames)
Interleave, preload duration : 96 ms
Language : Italian

Immagini

Quella Casa Nel Bosco – The Cabin in the Woods (2012) + Bonus 15 m., [XviD – Ita Eng Ac3 5.1 – Sub Ita]
Quella Casa Nel Bosco – The Cabin in the Woods (2012) + Bonus 15 m., [XviD – Ita Eng Ac3 5.1 – Sub Ita]
Quella Casa Nel Bosco – The Cabin in the Woods (2012) + Bonus 15 m., [XviD – Ita Eng Ac3 5.1 – Sub Ita]
Quella Casa Nel Bosco – The Cabin in the Woods (2012) + Bonus 15 m., [XviD – Ita Eng Ac3 5.1 – Sub Ita]
Quella Casa Nel Bosco – The Cabin in the Woods (2012) + Bonus 15 m., [XviD – Ita Eng Ac3 5.1 – Sub Ita]
Quella Casa Nel Bosco – The Cabin in the Woods (2012) + Bonus 15 m., [XviD – Ita Eng Ac3 5.1 – Sub Ita]
Quella Casa Nel Bosco – The Cabin in the Woods (2012) + Bonus 15 m., [XviD – Ita Eng Ac3 5.1 – Sub Ita]
Quella Casa Nel Bosco – The Cabin in the Woods (2012) + Bonus 15 m., [XviD – Ita Eng Ac3 5.1 – Sub Ita]
Quella Casa Nel Bosco – The Cabin in the Woods (2012) + Bonus 15 m., [XviD – Ita Eng Ac3 5.1 – Sub Ita]
Quella Casa Nel Bosco – The Cabin in the Woods (2012) + Bonus 15 m., [XviD – Ita Eng Ac3 5.1 – Sub Ita]
Quella Casa Nel Bosco – The Cabin in the Woods (2012) + Bonus 15 m., [XviD – Ita Eng Ac3 5.1 – Sub Ita]
Quella Casa Nel Bosco – The Cabin in the Woods (2012) + Bonus 15 m., [XviD – Ita Eng Ac3 5.1 – Sub Ita]
Quella Casa Nel Bosco – The Cabin in the Woods (2012) + Bonus 15 m., [XviD – Ita Eng Ac3 5.1 – Sub Ita]
Quella Casa Nel Bosco – The Cabin in the Woods (2012) + Bonus 15 m., [XviD – Ita Eng Ac3 5.1 – Sub Ita]
Quella Casa Nel Bosco – The Cabin in the Woods (2012) + Bonus 15 m., [XviD – Ita Eng Ac3 5.1 – Sub Ita]
Quella Casa Nel Bosco – The Cabin in the Woods (2012) + Bonus 15 m., [XviD – Ita Eng Ac3 5.1 – Sub Ita]
Quella Casa Nel Bosco – The Cabin in the Woods (2012) + Bonus 15 m., [XviD – Ita Eng Ac3 5.1 – Sub Ita]
Quella Casa Nel Bosco – The Cabin in the Woods (2012) + Bonus 15 m., [XviD – Ita Eng Ac3 5.1 – Sub Ita]

Trackers

http://tracker.publicbt.com:80/
http://tracker.istole.it:80/
http://tracker.tntvillage.scambioetico.org:2710/scrape
http://open.demonii.com:1337/scrape
http://tracker.coppersurfer.tk:6969/scrape
http://tracker.openbittorrent.com/scrape