Info

Rambo: First Blood Part II


6.4
IMDB: 6.4/10 123,194 votes

Durata: 96 min

Released:

Anno: 22 May 1985

Direttore:

Premi: Nominated for 1 Oscar. Another 5 wins & 4 nominations.

Budget: 44000000$

Incassi: 300400432$

Stato: Released

Paese: USA

Cast:




Mentre è ai lavori forzati, John Rambo ottiene la libertà anticipata a condizione che torni in Vietnam per liberare i prigionieri americani ancora chiusi nei campi.

Trailer


Upload on Youtube

Info File

Video
ID : 1
Format : HEVC
Format/Info : High Efficiency Video Coding
Codec ID : V_MPEGH/ISO/HEVC
Duration : 1h 36mn
Bit rate : 8 436 Kbps
Width : 1 920 pixels
Height : 816 pixels
Display aspect ratio : 2.35:1
Frame rate mode : Constant
Frame rate : 23.976 fps
Bits/(Pixel*Frame) : 0.225
Stream size : 5.66 GiB (85%)
Title : Video H.265 (Encoded by ZMachine)
Default : Yes
Forced : Yes

Audio #1
ID : 2
Format : AC-3
Format/Info : Audio Coding 3
Mode extension : CM (complete main)
Format settings, Endianness : Big
Codec ID : A_AC3
Duration : 1h 36mn
Bit rate mode : Constant
Bit rate : 640 Kbps
Channel(s) : 2 channels
Channel positions : Front: L R
Sampling rate : 48.0 KHz
Bit depth : 16 bits
Compression mode : Lossy
Stream size : 439 MiB (6%)
Title : Audio AC3 2.0
Language : Italian
Default : Yes
Forced : No

Immagini

Rambo: First Blood Part II – Ultimate Cut (1985), [BDrip]
Rambo: First Blood Part II – Ultimate Cut (1985), [BDrip]
Rambo: First Blood Part II – Ultimate Cut (1985), [BDrip]
Rambo: First Blood Part II – Ultimate Cut (1985), [BDrip]
Rambo: First Blood Part II – Ultimate Cut (1985), [BDrip]
Rambo: First Blood Part II – Ultimate Cut (1985), [BDrip]
Rambo: First Blood Part II – Ultimate Cut (1985), [BDrip]

Trackers

http://tracker.istole.it:80/
http://tracker.tntvillage.scambioetico.org:2710/scrape
http://open.demonii.com:1337/scrape
http://tracker.coppersurfer.tk:6969/scrape
http://tracker.openbittorrent.com/scrape
http://tracker.publicbt.com:80/