loading...
loading...






Info

Reign Over Me


7.5
IMDB: 7.5/10 84,359 votes

Durata: 124 min

Released:

Anno: 23 Mar 2007

Direttore:

Premi: 3 nominations.

Budget: 20000000$

Incassi: 22222308$

Stato: Released

Paese: USA

Tagline: Perdere tutto. Ritrovarlo per caso.

Cast:




Dopo la morte della moglie e delle figlie in uno degli aerei kamikaze dell’11 settembre 2001, l’ex-dentista Charlie Fineman ha perso ogni contatto con la realtà. Non fa altro che giocare con la PlayStation tutto il giorno, collezionare dischi e ristrutturare la cucina interminabilmente. I genitori della defunta moglie vorrebbero aiutarlo, ma lui rifiuta anche solo di parlare con loro……………………

Trailer


Upload on Youtube

Info File

Complete name : Reign Over Me (2007).ita.eng.multisub.MIRCrew\Reign Over Me (2007).ita.eng.multisub.MIRCrew.avi
Format : AVI
Format/Info : Audio Video Interleave
File size : 1.66 GiB
Duration : 1h 59mn
Overall bit rate : 1 987 Kbps
Writing application : VirtualDubMod 1.5.4.1 (build 2178/release)
Writing library : VirtualDubMod build 2178/release

Video
ID : 0
Format : MPEG-4 Visual
Format profile : Advanced [email protected]
Format settings, BVOP : 1
Format settings, QPel : No
Format settings, GMC : No warppoints
Format settings, Matrix : Custom
Codec ID : XVID
Codec ID/Hint : XviD
Duration : 1h 59mn
Bit rate : 1 082 Kbps
Width : 688 pixels
Height : 288 pixels
Display aspect ratio : 2.40:1
Frame rate : 25.000 fps
Color space : YUV
Chroma subsampling : 4:2:0
Bit depth : 8 bits
Scan type : Progressive
Compression mode : Lossy
Bits/(Pixel*Frame) : 0.218
Stream size : 925 MiB (54%)
Writing library : XviD 64

Audio #1
ID : 1
Format : AC-3
Format/Info : Audio Coding 3
Mode extension : CM (complete main)
Codec ID : 2000
Duration : 1h 59mn
Bit rate mode : Constant
Bit rate : 448 Kbps
Channel(s) : 6 channels
Channel positions : Front: L C R, Side: L R, LFE
Sampling rate : 48.0 KHz
Bit depth : 16 bits
Compression mode : Lossy
Stream size : 383 MiB (23%)
Alignment : Split accross interleaves
Interleave, duration : 96 ms (2.40 video frames)
Interleave, preload duration : 96 ms
Language : Italian

Audio #2
ID : 2
Format : AC-3
Format/Info : Audio Coding 3
Mode extension : CM (complete main)
Codec ID : 2000
Duration : 1h 59mn
Bit rate mode : Constant
Bit rate : 448 Kbps
Channel(s) : 6 channels
Channel positions : Front: L C R, Side: L R, LFE
Sampling rate : 48.0 KHz
Bit depth : 16 bits
Compression mode : Lossy
Stream size : 383 MiB (23%)
Alignment : Split accross interleaves
Interleave, duration : 96 ms (2.40 video frames)
Interleave, preload duration : 96 ms
Language : English

Immagini

Reign over me (2007), [XviD – Ita Eng Ac3 5.1 – MultiSub]
Reign over me (2007), [XviD – Ita Eng Ac3 5.1 – MultiSub]
Reign over me (2007), [XviD – Ita Eng Ac3 5.1 – MultiSub]

Trackers

http://tracker.publicbt.com:80/
http://tracker.istole.it:80/
http://tracker.tntvillage.scambioetico.org:2710/scrape
http://open.demonii.com:1337/scrape
http://tracker.openbittorrent.com/scrape
http://tracker.coppersurfer.tk:6969/scrape