Rendez-vous (1985), [DTTrip]  (674.81 Mb)

Likes(0)Dislikes(0)
seeders: 1
leechers: 0








Info




Stato: Released

Cast:




Nina, un’inquieta ragazza di provincia, arriva a Parigi, decisa a “vivere la sua vita” facendo l’attrice. Cerca subito casa, aiutata da Paulot, un timido giovanotto che lavora in una agenzia immobiliare e abita una camera d’affitto insieme a Costantin, giovane attore frustrato e nevrotico. Nina ottiene dapprima una particina da comparsa in una mediocre commedia, ed é ammirata da Paulot, che la corteggia, ma gli preferisce Costantin per il suo lugubre fascino di ossessionato dalla morte. Gli si concede quasi fatalmente, ma lo vede ben presto perire suicida, rimanendo scossa e perseguitata dal suo ricordo-fantasma. Disprezzata da Paulot, che la possiede insultandola, viene notata durante un’audizione da Scrutzeler, un attempato regista che rivede in lei la figlia perita in un incidente stradale provocato da Costantin di cui era l’amante, e che la sceglie per la parte di Giulietta in una riedizione della celebre commedia di Shakespeare, abbandonandola alla sua parte di eroina al rendez-vous con la morte.

Trailer


Upload on Youtube

Info File

Video
ID : 0
Format : MPEG-4 Visual
Format settings, BVOP : 1
Format settings, QPel : No
Format settings, GMC : No warppoints
Format settings, Matrix : Default (H.263)
Muxing mode : Packed bitstream
Codec ID : DX50
Codec ID/Hint : DivX 5
Duration : 1h 20mn
Bit rate : 1 066 Kbps
Width : 448 pixels
Height : 320 pixels
Display aspect ratio : 1.400
Frame rate : 25.000 fps
Color space : YUV
Chroma subsampling : 4:2:0
Bit depth : 8 bits
Scan type : Progressive
Compression mode : Lossy
Bits/(Pixel*Frame) : 0.297
Stream size : 611 MiB (91%)
Writing library : DivX 5.1.1 (Maupiti) (UTC 2003-11-19)

Audio
ID : 1
Format : MPEG Audio
Format version : Version 1
Format profile : Layer 3
Mode : Joint stereo
Mode extension : MS Stereo
Codec ID : 55
Codec ID/Hint : MP3
Duration : 1h 20mn
Source duration : 1h 17mn
Bit rate mode : Variable
Bit rate : 102 Kbps
Nominal bit rate : 128 Kbps
Channel(s) : 2 channels
Sampling rate : 48.0 KHz
Compression mode : Lossy
Delay relative to video : 48ms
Stream size : 56.2 MiB (8%)
Alignment : Aligned on interleaves
Interleave, duration : 24 ms (0.60 video frame)
Interleave, preload duration : 1158 ms
Writing library : LAME3.97
Encoding settings : -m j -V 4 -q 2 -lowpass 17 --abr 128

Immagini

Rendez-vous (1985), [DTTrip]
Rendez-vous (1985), [DTTrip]

Trackers

http://tracker.istole.it:80/
http://tracker.publicbt.com:80/
http://tracker.tntvillage.scambioetico.org:2710/scrape
http://open.demonii.com:1337/scrape
http://tracker.coppersurfer.tk:6969/scrape
http://tracker.openbittorrent.com/scrape