Ritorno a casa (2000), [DivX – Ita Mp3]  (900.21 Mb)

Likes(0)Dislikes(0)
seeders: 0
leechers: 0


loading...
loading...






Info

I'm Going Home


7.1
IMDB: 7.1/10 1,441 votes

Durata: 90 min

Released:

Anno: 12 Sep 2001

Direttore:

Premi: 5 wins & 3 nominations.

Stato: Released

Paese: France, Portugal

Cast:




Il film è ambientato a Parigi in epoca contemporanea. Gilbert Valence è un grande attore teatrale francese. Dopo la recita di Il re muore di Ionesco apprende che in un incidente stradale sono morti la moglie, la figlia e il genero; unico sopravvissuto è Serge, un bambino di circa otto anni. Qualche tempo dopo si osserva come Valence abbia superato senza gravi traumi il grave lutto: ha accolto in casa il nipote, a cui si sforza di dare serenità e affetto, mantiene tutte le abitudini di prima, continua a recitare con successo in teatro, rifiuta di rifarsi una vita, nonostante sia ancora un uomo vigoroso……………….

 

Trailer


Upload on Youtube

Info File

Video
ID : 0
Format : MPEG-4 Visual
Format profile : Advanced [email protected]
Format settings, BVOP : Yes
Format settings, QPel : No
Format settings, GMC : No warppoints
Format settings, Matrix : Default (H.263)
Codec ID : DIVX
Codec ID/Info : Project Mayo
Codec ID/Hint : DivX 4
Duration : 1h 25mn
Bit rate : 1 263 Kbps
Width : 688 pixels
Height : 386 pixels
Display aspect ratio : 16:9
Frame rate : 25.000 fps
Color space : YUV
Chroma subsampling : 4:2:0
Bit depth : 8 bits
Scan type : Progressive
Bits/(Pixel*Frame) : 0.190
Stream size : 774 MiB (86%)
Writing library : XviD 64

Audio
ID : 1
Format : MPEG Audio
Format version : Version 1
Format profile : Layer 3
Codec ID : 55
Codec ID/Hint : MP3
Duration : 1h 25mn
Bit rate mode : Constant
Bit rate : 192 Kbps
Channel(s) : 2 channels
Sampling rate : 44.1 KHz
Stream size : 118 MiB (13%)
Alignment : Aligned on interleaves
Interleave, duration : 26 ms (0.65 video frame)

Trackers

http://tracker.istole.it:80/
http://tracker.publicbt.com:80/
http://tracker.tntvillage.scambioetico.org:2710/scrape
http://open.demonii.com:1337/scrape
http://tracker.openbittorrent.com/scrape
http://tracker.coppersurfer.tk:6969/scrape