Saturno contro (2007), [XviD – Ita Ac3]  (1.37 Gb)

Likes(0)Dislikes(0)
seeders: 14
leechers: 0


loading...
loading...






Info

Saturn in Opposition


6.7
IMDB: 6.7/10 3,381 votes

Durata: 110 min

Released:

Anno: 23 Feb 2007

Direttore:

Premi: 20 wins & 13 nominations.

Stato: Released

Paese: Italy, France, Turkey

Tagline: Ritratto borghese di un gruppo di fate in un interno romano.

Cast:




Un gruppo di quarantenni, affronta il tema della separazione e la paura di restare soli, in momento critico come quello che stiamo attraversando in questi anni, tra crisi economica, terrorismo internazionale e la paura per il contagio delle nuove malattie. Tra questi, Antonio e Angelica, sposati da anni ma ormai in crisi da diverso tempo, non riescono però a vivere l’uno senza l’altra. Il tema della separazione é affrontato non soltanto dal punto di vista della coppia ma viene anche rapportato all’amicizia…

Trailer


Upload on Youtube

Info File

Complete name : Saturno.contro.iTaLiAn.2007.Xvid.DvdRip.DelaYeD.avi
Format : AVI
Format/Info : Audio Video Interleave
File size : 1.37 GiB
Duration : 1h 46mn
Overall bit rate : 1 845 Kbps
Writing application : VirtualDubMod 1.5.4.1 (build 2178/release)
Writing library : VirtualDubMod build 2178/release

Video
ID : 0
Format : MPEG-4 Visual
Format profile : Advanced [email protected]
Format settings, BVOP : Yes
Format settings, QPel : No
Format settings, GMC : No warppoints
Format settings, Matrix : Custom
Codec ID : XVID
Codec ID/Hint : XviD
Duration : 1h 46mn
Bit rate : 1 390 Kbps
Width : 720 pixels
Height : 304 pixels
Display aspect ratio : 2.35:1
Frame rate : 25.000 fps
Color space : YUV
Chroma subsampling : 4:2:0
Bit depth : 8 bits
Scan type : Progressive
Bits/(Pixel*Frame) : 0.254
Stream size : 1.03 GiB (75%)
Writing library : XviD 1.2.0.dev47 (UTC 2006-11-01)

Audio
ID : 1
Format : AC-3
Format/Info : Audio Coding 3
Mode extension : CM (complete main)
Codec ID : 2000
Duration : 1h 46mn
Bit rate mode : Constant
Bit rate : 448 Kbps
Channel(s) : 6 channels
Channel positions : Front: L C R, Side: L R, LFE
Sampling rate : 48.0 KHz
Bit depth : 16 bits
Video delay : 8ms
Stream size : 340 MiB (24%)
Alignment : Split accross interleaves
Interleave, duration : 96 ms (2.40 video frames)
Interleave, preload duration : 96 ms

Immagini

Saturno contro (2007), [XviD – Ita Ac3]

Trackers

http://tracker.publicbt.com:80/
http://tracker.istole.it:80/
http://tracker.tntvillage.scambioetico.org:2710/scrape
http://open.demonii.com:1337/scrape
http://tracker.openbittorrent.com/scrape
http://tracker.coppersurfer.tk:6969/scrape