Info

Scorpion
user posted image

 

.: Scheda della serie :.

 

Scorpion
Titolo Serie: Scorpion
Nazione: Stati Uniti d’America
Anno di messa in onda: 2014 – in produzione
Genere: Azione,Poliziesco
Episodi: 22
Durata Episodio: 42 min. circa

 

.: Trama :.

 

Scorpion
Scorpion, nota anche con il titolo stilizzato </scorpion>, è una serie televisiva statunitense creata da Nick Santora per la CBS.La serie segue le gesta del genio Walter O’Brien e del suo team di “cervelloni” ingaggiati dal governo statunitense per risolvere complicati casi di varia natura. La serie ha debuttato negli Stati Uniti il 22 settembre 2014, registrando buoni dati d’ascolto.

 

.: Personaggi, interpreti e doppiatori :.

 

Scorpion
Interpreti e personaggi

Elyes Gabel: Walter O’Brien
Katharine McPhee: Paige Dineen
Robert Patrick: Agente Cabe Gallo
Eddie Kaye Thomas: Toby Curtis
Jadyn Wong: Happy Quinn
Ari Stidham: Sylvester Dodd

Info File

[ Info sul file ]
General
Unique ID : 178670852908385566929749391471469198762 (0x866AC12C30D2478FAE154B4E4F44FDAA)
Complete name : D:\Downloads\8ead03a\[DLMux 720p - H264 - Ita Mp3] Scorpion S03e03 - Non è la caduta che ti uccide.by.IperB.mkv
Format : Matroska
Format version : Version 2
File size : 455 MiB
Duration : 39 min 12 s
Overall bit rate : 1 624 kb/s
Encoded date : UTC 2017-03-05 15:04:52
Writing application : mkvmerge v8.5.2 ('Crosses') 32bit
Writing library : libebml v1.3.3 + libmatroska v1.4.4

Video
ID : 1
Format : AVC
Format/Info : Advanced Video Codec
Format profile : High@L4.1
Format settings, CABAC : Yes
Format settings, ReFrames : 5 frames
Codec ID : V_MPEG4/ISO/AVC
Duration : 39 min 12 s
Bit rate : 1 496 kb/s
Width : 1 280 pixels
Height : 720 pixels
Display aspect ratio : 16:9
Frame rate mode : Constant
Frame rate : 23.976 (24000/1001) FPS
Original frame rate : 24.000 FPS
Color space : YUV
Chroma subsampling : 4:2:0
Bit depth : 8 bits
Scan type : Progressive
Bits/(Pixel*Frame) : 0.068
Stream size : 419 MiB (92%)
Writing library : x264 core 148 r2638 7599210
Encoding settings : cabac=1 / ref=5 / deblock=1:0:0 / analyse=0x3:0x113 / me=umh / subme=8 / psy=1 / psy_rd=1.00:0.00 / mixed_ref=1 / me_range=16 / chroma_me=1 / trellis=1 / 8x8dct=1 / cqm=0 / deadzone=21,11 / fast_pskip=1 / chroma_qp_offset=-2 / threads=12 / lookahead_threads=2 / sliced_threads=0 / nr=0 / decimate=1 / interlaced=0 / bluray_compat=0 / constrained_intra=0 / bframes=3 / b_pyramid=2 / b_adapt=2 / b_bias=0 / direct=3 / weightb=1 / open_gop=0 / weightp=2 / keyint=240 / keyint_min=24 / scenecut=40 / intra_refresh=0 / rc_lookahead=50 / rc=2pass / mbtree=1 / bitrate=1496 / ratetol=1.0 / qcomp=0.60 / qpmin=0 / qpmax=69 / qpstep=4 / cplxblur=20.0 / qblur=0.5 / vbv_maxrate=62500 / vbv_bufsize=78125 / nal_hrd=none / filler=0 / ip_ratio=1.40 / aq=1:1.00
Default : Yes
Forced : No

Audio
ID : 2
Format : MPEG Audio
Format version : Version 1
Format profile : Layer 3
Mode : Joint stereo
Mode extension : MS Stereo
Codec ID : A_MPEG/L3
Codec ID/Hint : MP3
Duration : 39 min 12 s
Bit rate mode : Constant
Bit rate : 128 kb/s
Channel(s) : 2 channels
Sampling rate : 48.0 kHz
Frame rate : 41.667 FPS (1152 spf)
Compression mode : Lossy
Stream size : 35.9 MiB (8%)
Title : ITA MP3
Language : Italian
Default : Yes
Forced : No

Trackers

http://tracker.leechers-paradise.org:6969/scrape
http://tracker.tntvillage.scambioetico.org:2710/scrape
http://tracker.tiny-vps.com:6969/scrape
http://tracker.mg64.net:2710/scrape
http://tracker.coppersurfer.tk:6969/scrape
http://IPv6.leechers-paradise.org:6969/scrape
http://tracker.internetwarriors.net:1337/scrape
http://tracker.openbittorrent.com/scrape

Torrent correlati

Torrent Name Dimm. Creato Seed Leech
comment icon
17.24 Gb 8 mesi fa 7 5
comment icon
419.69 Mb 6 mesi fa 0 0
comment icon
578.72 Mb 9 mesi fa 598 378
comment icon
364.48 Mb 2 mesi fa 13 2
comment icon
535.46 Mb 6 mesi fa 2 2