loading...
loading...






Info

user posted image
.: Scheda della serie :.
Creatore: Jill Blotevogel, Dan Dworkin e Jay Beattie

Cast:
Willa Fitzgerald: Emma Duval
Bex Taylor-Klaus: Audrey Jensen
John Karna: Noah Foster
Amadeus Serafini: Kieran Wilcox
Connor Weil: Will Belmont
Carlson Young: Brooke Maddox
Jason Wiles: Clark Hudson
Tracy Middendorf: Margaret “Maggie” Duval
Kiana Lede: Zoe Vaughn
Santiago Segura: Gustavo Acosta
Trama
Tre mesi dopo la fine della prima stagione, Emma è ritornata a Lakewood che aveva lasciato allo scopo di superare gli orrori vissuti, Noah ha aperto un podcast con cui è sempre più vicino alla veritá sul complice di Piper, Audrey ha trovato un lavoro presso un cinema mentre Jake e Brooke si sono messi insieme ma tengono la loro relazione segreta al sindaco Maddox. Tutto sembra essersi risolto ma ad un certo punto Audrey comincia a ricevere messaggi minatori e telefonate da uno sconosciuto che le fa capire di conoscere la veritá su quello che ha fatto e sul suo legame con Piper. Questo sconosciuto è il nuovo assassino che questa volta prende di mira Audrey e non Emma.

Info File

General
Unique ID : 321136575818945141683909178713616607366 (0xF198A79E66D8DB7A3B03A1D6AD62E886)
Complete name : Scream.2x07.Lasciami.Entrare.ITA.ENG.720p.WEB-DLMux.H.264.Speranzah.mkv
Format : Matroska
Format version : Version 4 / Version 2
File size : 1.26 GiB
Duration : 41 min
Overall bit rate : 4 364 kb/s
Encoded date : UTC 2016-07-16 13:57:36
Writing application : mkvmerge v7.6.0 ('Garden of Dreams') 64bit built on Feb 8 2015 15:12:28
Writing library : libebml v1.3.1 + libmatroska v1.4.2

Video
ID : 1
Format : AVC
Format/Info : Advanced Video Codec
Format profile : [email protected]
Format settings, CABAC : No
Format settings, ReFrames : 2 frames
Codec ID : V_MPEG4/ISO/AVC
Duration : 41 min
Bit rate : 4 013 kb/s
Width : 1 280 pixels
Height : 718 pixels
Display aspect ratio : 16:9
Frame rate mode : Constant
Frame rate : 23.976 (24000/1001) FPS
Color space : YUV
Chroma subsampling : 4:2:0
Bit depth : 8 bits
Scan type : Progressive
Bits/(Pixel*Frame) : 0.182
Stream size : 1.16 GiB (92%)
Language : English
Default : Yes
Forced : No
Color range : Limited
Color primaries : BT.709
Transfer characteristics : BT.709
Matrix coefficients : BT.709

Audio #1
ID : 2
Format : AC-3
Format/Info : Audio Coding 3
Mode extension : CM (complete main)
Format settings, Endianness : Big
Codec ID : A_AC3
Duration : 41 min
Bit rate mode : Constant
Bit rate : 192 kb/s
Channel(s) : 2 channels
Channel positions : Front: L R
Sampling rate : 48.0 kHz
Frame rate : 31.250 FPS (1536 spf)
Compression mode : Lossy
Stream size : 57.0 MiB (4%)
Title : ITA
Language : Italian
Default : Yes
Forced : Yes

Audio #2
ID : 3
Format : AAC
Format/Info : Advanced Audio Codec
Format profile : LC
Codec ID : A_AAC
Duration : 41 min
Bit rate : 156 kb/s
Channel(s) : 2 channels
Channel positions : Front: L R
Sampling rate : 48.0 kHz
Frame rate : 46.875 FPS (1024 spf)
Compression mode : Lossy
Stream size : 46.3 MiB (4%)
Title : ENG
Language : English
Default : No
Forced : No

Text #1
ID : 4
Format : UTF-8
Codec ID : S_TEXT/UTF8
Codec ID/Info : UTF-8 Plain Text
Duration : 34 min
Bit rate : 5 b/s
Count of elements : 33
Stream size : 1.40 KiB (0%)
Title : ITA - Forced
Language : Italian
Default : Yes
Forced : Yes

Text #2
ID : 5
Format : UTF-8
Codec ID : S_TEXT/UTF8
Codec ID/Info : UTF-8 Plain Text
Duration : 40 min
Bit rate : 77 b/s
Count of elements : 671
Stream size : 23.2 KiB (0%)
Language : Italian
Default : No
Forced : No

Text #3
ID : 6
Format : UTF-8
Codec ID : S_TEXT/UTF8
Codec ID/Info : UTF-8 Plain Text
Duration : 40 min
Bit rate : 82 b/s
Count of elements : 661
Stream size : 24.7 KiB (0%)
Language : English
Default : No
Forced : No

Trackers

http://tracker.publicbt.com:80/
http://tracker.istole.it:80/
http://tracker.tntvillage.scambioetico.org:2710/scrape
http://open.demonii.com:1337/scrape
http://tracker.coppersurfer.tk:6969/scrape
http://tracker.openbittorrent.com/scrape