loading...
loading...






Info

user posted image

Scheda della serie
Creatore: Denis Leary

Cast:
Denis Leary
John Corbett
Elizabeth Gillies
Robert Kelly
John Ales
Elaine Hendrix

Titolo originale: Sex&Drugs&Rock&Roll
Paese: Stati Uniti d’America
Anno :2015 – in produzione
Formato: serie TV
Genere: commedia
Stagioni : 2
Episodi: 14/20
Prima TV USA: 16 Luglio 2015
Durata: 25 minuti
Lingua originale: inglese
Ideatore: Denis Leary

 

Scritta ed interpretata da Denis Leary, lo storico protagonista di Rescue me, Sex & Drugs & Rock & Roll si focalizza sulla vita di Johnny Rock, frontman di una famosa ed immaginaria rock band newyorkese che, ad inizio degli anni ’90, si è imposta come un vero fenomeno di massa. Caso ha voluto che gli Heathens proprio quando il loro primo album scalava le classifiche mondiali, si sono sciolti, finendo quasi subito nel dimenticatoio. 25 anni dopo Johnny è senza lavoro ma sogna ancora di affermarsi in campo musicale. Finché Gigi, la talentuosa figlia di Johnny, decide lei stessa di prendere in mano la carriera del padre, facendo tornare in auge l’indimenticata Rock Band. Fra colpi di genio e battute al fulmicotone, per Johnny ed i suoi compagni di avventura si aprirà un futuro radioso o una dissacrante competizione?

Info File

General
Complete name : Sex.and.Drugs.and.Rock.and.Roll_S02e01-04/Sex.and.Drugs.and.Rock.and.Roll.S02E04.WEB-DL.x264-sp_54321.mp4
Format : MPEG-4
Format profile : Base Media
Codec ID : isom (isom/iso2/avc1/mp41)
File size : 133 MiB
Duration : 23 min
Overall bit rate : 780 kb/s
Movie name : RARBG.COM - Sex.and.Drugs.and.Rock.and.Roll.S02E04.WEB-DL.x264-RARBG
Encoded date : UTC 2016-07-22 23:47:19
Tagged date : UTC 2016-07-22 23:47:19
Writing application : Lavf56.40.101
Comment : RARBG.COM - Sex.and.Drugs.and.Rock.and.Roll.S02E04.WEB-DL.x264-RARBG

Video
ID : 1
Format : AVC
Format/Info : Advanced Video Codec
Format profile : [email protected]
Format settings, CABAC : Yes
Format settings, ReFrames : 5 frames
Codec ID : avc1
Codec ID/Info : Advanced Video Coding
Duration : 23 min
Bit rate : 646 kb/s
Width : 720 pixels
Height : 400 pixels
Display aspect ratio : 16:9
Frame rate mode : Constant
Frame rate : 23.976 (24000/1001) FPS
Color space : YUV
Chroma subsampling : 4:2:0
Bit depth : 8 bits
Scan type : Progressive
Bits/(Pixel*Frame) : 0.094
Stream size : 110 MiB (83%)
Title : RARBG.COM - Sex.and.Drugs.and.Rock.and.Roll.S02E04.WEB-DL.x264-RARBG
Writing library : x264 core 148 r2597M e86f3a1
Encoding settings : cabac=1 / ref=5 / deblock=1:-1:-1 / analyse=0x3:0x113 / me=umh / subme=9 / psy=1 / psy_rd=1.00:0.15 / mixed_ref=1 / me_range=16 / chroma_me=1 / trellis=2 / 8x8dct=1 / cqm=0 / deadzone=21,11 / fast_pskip=1 / chroma_qp_offset=-3 / threads=12 / lookahead_threads=1 / sliced_threads=0 / nr=0 / decimate=1 / interlaced=0 / bluray_compat=0 / constrained_intra=0 / bframes=3 / b_pyramid=2 / b_adapt=2 / b_bias=0 / direct=3 / weightb=1 / open_gop=0 / weightp=2 / keyint=250 / keyint_min=23 / scenecut=40 / intra_refresh=0 / rc_lookahead=50 / rc=crf / mbtree=1 / crf=19.0 / qcomp=0.60 / qpmin=0 / qpmax=69 / qpstep=4 / ip_ratio=1.40 / aq=1:1.00
Language : English
Encoded date : UTC 2016-07-22 23:47:19
Tagged date : UTC 2016-07-22 23:47:19

Audio
ID : 2
Format : AAC
Format/Info : Advanced Audio Codec
Format profile : LC
Codec ID : 40
Duration : 23 min
Duration_LastFrame : -11 ms
Bit rate mode : Constant
Bit rate : 128 kb/s
Channel(s) : 2 channels
Channel positions : Front: L R
Sampling rate : 48.0 kHz
Frame rate : 46.875 FPS (1024 spf)
Compression mode : Lossy
Stream size : 21.8 MiB (16%)
Title : RARBG.COM - Sex.and.Drugs.and.Rock.and.Roll.S02E04.WEB-DL.x264-RARBG
Language : English
Default : Yes
Alternate group : 1
Encoded date : UTC 2016-07-22 23:47:19
Tagged date : UTC 2016-07-22 23:47:19

Immagini

Sex&Drugs&Rock&Roll S02e06-10, [H264 – Eng Aac – Sub Ita Eng]
Sex&Drugs&Rock&Roll S02e06-10, [H264 – Eng Aac – Sub Ita Eng]
Sex&Drugs&Rock&Roll S02e06-10, [H264 – Eng Aac – Sub Ita Eng]

Trackers

http://tracker.istole.it:80/
http://tracker.publicbt.com:80/
http://tracker.tntvillage.scambioetico.org:2710/scrape
http://open.demonii.com:1337/scrape
http://tracker.coppersurfer.tk:6969/scrape
http://tracker.openbittorrent.com/scrape