loading...
loading...






Info

user posted image

.: Scheda della serie :.
Ideatore: Adi Hasak

Cast:
Jennifer Lopez: Harlee Santos
Ray Liotta: Matt Wozniak
Drea de Matteo: Tess Nazario
Warren Kole: Robert Stahl
Dayo Okeniyi: Michael Loman
Hampton Fluker: Patrick Tufo
Vincent Laresca: Tony Espada
Sarah Jeffery: Cristina Santos

Storia e ambientazione:
Shades of Blue è una serie televisiva statunitense che va in onda dal 7 gennaio 2016 sulla NBC.

Si tratta di un police procedural con protagonista Jennifer Lopez nei panni di una detective della polizia di New York corrotta, costretta a collaborare con una squadra anticorruzione dell’FBI.

Trama
Harlee Santos è una detective del New York City Police Department impiegata nel borough di Brooklyn. Lei e la sua squadra, guidata dal tenente Wozniak, sono abituati a piegare le regole e adoperare sotterfugi al di fuori delle regole per proprio tornaconto. Quando Harlee viene colta in flagrante ad infrangere le leggi viene costretta dall’investigatore dell’FBI Robert Stahl a cooperare con la sua task force anticorruzione e tradire la fiducia dei colleghi.

Titolo originale Shades of Blue
Paese Stati Uniti d’America
Anno 2016 – in produzione
Formato serie TV
Genere drammatico, poliziesco
Stagioni 1
Episodi 13
Durata 45 min (episodio)
Lingua originale inglese

Info File

General
Complete name : Shades.of.Blue.S01e01.Pilot.ITA.ENG.720p.WEB-DL.x264-sp_54321/Shades.of.Blue.S01e01.Pilot.ITA.ENG.720p.WEB-DL.x264-sp_54321.en.srt
Format : SubRip
File size : 70.6 KiB

Text
Format : SubRip
Compression mode : Lossless

General
Complete name : Shades.of.Blue.S01e01.Pilot.ITA.ENG.720p.WEB-DL.x264-sp_54321/Shades.of.Blue.S01e01.Pilot.ITA.ENG.720p.WEB-DL.x264-sp_54321.ita.srt
Format : SubRip
File size : 53.0 KiB

Text
Format : SubRip
Compression mode : Lossless

General
Unique ID : 215947698499735320228678602649922154206 (0xA276038EB3CB98FD9E6632F5184FAEDE)
Complete name : Shades.of.Blue.S01e01.Pilot.ITA.ENG.720p.WEB-DL.x264-sp_54321/Shades.of.Blue.S01e01.Pilot.ITA.ENG.720p.WEB-DL.x264-sp_54321.mkv
Format : Matroska
Format version : Version 4 / Version 2
File size : 574 MiB
Duration : 42mn 47s
Overall bit rate : 1 875 Kbps
Encoded date : UTC 2016-09-23 10:23:11
Writing application : mkvmerge v9.4.2 ('So High') 64bit
Writing library : libebml v1.3.4 + libmatroska v1.4.5
DURATION : 00:42:14.961000000
NUMBER_OF_FRAMES : 705
NUMBER_OF_BYTES : 26190
_STATISTICS_WRITING_APP : mkvmerge v9.4.2 ('So High') 64bit
_STATISTICS_WRITING_DATE_UTC : 2016-09-23 10:23:11
_STATISTICS_TAGS : BPS DURATION NUMBER_OF_FRAMES NUMBER_OF_BYTES

Video
ID : 1
Format : AVC
Format/Info : Advanced Video Codec
Format profile : [email protected]
Format settings, CABAC : Yes
Format settings, ReFrames : 4 frames
Codec ID : V_MPEG4/ISO/AVC
Duration : 42mn 47s
Bit rate : 1 294 Kbps
Width : 1 280 pixels
Height : 720 pixels
Display aspect ratio : 16:9
Frame rate mode : Constant
Frame rate : 23.976 fps
Color space : YUV
Chroma subsampling : 4:2:0
Bit depth : 8 bits
Scan type : Progressive
Bits/(Pixel*Frame) : 0.059
Stream size : 396 MiB (69%)
Writing library : x264 core 142 r2479 dd79a61
Encoding settings : cabac=1 / ref=3 / deblock=1:-1:-1 / analyse=0x3:0x113 / me=hex / subme=7 / psy=1 / psy_rd=1.00:0.15 / mixed_ref=1 / me_range=16 / chroma_me=1 / trellis=1 / 8x8dct=1 / cqm=0 / deadzone=21,11 / fast_pskip=1 / chroma_qp_offset=-3 / threads=18 / lookahead_threads=3 / sliced_threads=0 / nr=0 / decimate=1 / interlaced=0 / bluray_compat=0 / constrained_intra=0 / bframes=3 / b_pyramid=2 / b_adapt=1 / b_bias=0 / direct=1 / weightb=1 / open_gop=0 / weightp=2 / keyint=240 / keyint_min=24 / scenecut=40 / intra_refresh=0 / rc_lookahead=40 / rc=crf / mbtree=1 / crf=23.0 / qcomp=0.60 / qpmin=0 / qpmax=69 / qpstep=4 / ip_ratio=1.40 / aq=1:1.00
Language : English
Default : Yes
Forced : No
Color range : Limited
Color primaries : BT.709
Transfer characteristics : BT.709
Matrix coefficients : BT.709

Audio #1
ID : 2
Format : AC-3
Format/Info : Audio Coding 3
Mode extension : CM (complete main)
Format settings, Endianness : Big
Codec ID : A_AC3
Duration : 42mn 47s
Bit rate mode : Constant
Bit rate : 160 Kbps
Channel(s) : 2 channels
Channel positions : Front: L R
Sampling rate : 48.0 KHz
Compression mode : Lossy
Stream size : 49.0 MiB (9%)
Title : Italiano
Language : Italian
Default : Yes
Forced : Yes

Audio #2
ID : 3
Format : AC-3
Format/Info : Audio Coding 3
Mode extension : CM (complete main)
Format settings, Endianness : Big
Codec ID : A_AC3
Duration : 42mn 47s
Bit rate mode : Constant
Bit rate : 384 Kbps
Channel(s) : 6 channels
Channel positions : Front: L C R, Side: L R, LFE
Sampling rate : 48.0 KHz
Compression mode : Lossy
Stream size : 118 MiB (20%)
Title : English
Language : English
Default : No
Forced : No

Text #1
ID : 4
Format : UTF-8
Codec ID : S_TEXT/UTF8
Codec ID/Info : UTF-8 Plain Text
Title : Italiano
Language : Italian
Default : Yes
Forced : No

Text #2
ID : 5
Format : UTF-8
Codec ID : S_TEXT/UTF8
Codec ID/Info : UTF-8 Plain Text
Title : English
Language : English
Default : No
Forced : No
[ Info sul file ]

Trackers

http://tracker.publicbt.com:80/
http://tracker.istole.it:80/
http://tracker.tntvillage.scambioetico.org:2710/scrape
http://open.demonii.com:1337/scrape
http://tracker.coppersurfer.tk:6969/scrape
http://tracker.openbittorrent.com/scrape

Torrent correlati

Torrent Name Dimm. Creato Seed Leech
comment icon
1.9 Gb 1 mese fa 16 9
comment icon
2.55 Gb 3 mesi fa 1 5
comment icon
4.17 Gb 3 settimane fa 14 25
comment icon
497.89 Mb 3 settimane fa 0 1
comment icon
4.8 Gb 1 mese fa 0 0