Info

Withnail & I


7.8
IMDB: 7.8/10 32,025 votes

Durata: 107 min

Released:

Anno: 19 Jun 1987

Direttore:

Premi: 1 win & 1 nomination.

Stato: Released

Paese: UK

Cast:




Due amici londinesi tra i 25 e i 30 anni, vivono insieme da molto tempo nel lercio appartamentino di un quartiere degradatissimo. Più belloccio e meno sfortunato l’innominato, più bizzarro il suo compagno, tirano avanti a fatica, nell’attesa di una scrittura teatrale che non arriva mai. Tanto per uscire da Camden Town, “lo” suggerisce di andare a fare una visita a Monty, lo scapolo e ricco zio di Withnail, che vive altrove e da costui accettano ben volentieri di trasferirsi per una settimana di vacanza nella casa rustica che quello possiede in campagna. Ma là piove quasi sempre e c’è un freddo dannato: già è un problema il procurasi liquori e carburante, data l’inospitalità nei confronti dei londinesi, senza contare un bracconiere che sembra avercela con i due. Lo zio Monty arriva in visita a bordo della sua lussuosa macchina e per fortuna porta rinforzi: è un tipo grasso e rubizzo, un volto porcino, amante dei buoni piatti e più ancora dei bei ragazzi.

Trailer


Upload on Youtube

Info File

Video
ID: 1
Format: AVC
Format/Info: Advanced Video Codec
Format profile: [email protected]
Format settings, CABAC: Yes
Format settings, ReFrames: 9 frames
Codec ID: V_MPEG4/ISO/AVC
Duration: 1h 47mn
Bit rate: 6 585 Kbps
Width: 1 280 pixels
Height: 688 pixels
Display aspect ratio: 1.85:1
Frame rate mode: Constant
Frame rate: 23.976 fps
Color space: YUV
Chroma subsampling: 4:2:0
Bit depth: 8 bits
Scan type: Progressive
Bits/(Pixel*Frame): 0.312
Stream size: 4.83 GiB (92%)
Title: Shakespeare a colazione (Bruce Robinson, 1987)
Writing library: x264 core 146 r2538 121396c
Encoding settings: cabac=1 / ref=9 / deblock=1:-3:-3 / analyse=0x3:0x133 / me=umh / subme=10 / psy=1 / psy_rd=1.15:0.00 /
mixed_ref=1 / me_range=32 / chroma_me=1 / trellis=2 / 8x8dct=1 / cqm=0 / deadzone=21,11 / fast_pskip=0 / chroma_qp_offset=-2 /
threads=24 / lookahead_threads=4 / sliced_threads=0 / nr=0 / decimate=1 / interlaced=0 / bluray_compat=0 / constrained_intra=0 /
bframes=8 / b_pyramid=2 / b_adapt=2 / b_bias=0 / direct=3 / weightb=1 / open_gop=0 / weightp=2 / keyint=240 / keyint_min=24 /
scenecut=40 / intra_refresh=0 / rc_lookahead=60 / rc=2pass / mbtree=1 / bitrate=6585 / ratetol=1.0 / qcomp=0.60 / qpmin=0 /
qpmax=69 / qpstep=4 / cplxblur=20.0 / qblur=0.5 / ip_ratio=1.40 / aq=3:0.70
Language: English
Default: Yes
Forced: No

Audio #1
ID: 2
Format: AC-3
Format/Info: Audio Coding 3
Mode extension: CM (complete main)
Format settings, Endianness: Big
Codec ID: A_AC3
Duration: 1h 47mn
Bit rate mode: Constant
Bit rate: 192 Kbps
Channel count: 1 channel
Channel positions: Front: C
Sampling rate: 48.0 KHz
Bit depth: 16 bits
Compression mode: Lossy
Stream size: 148 MiB (3%)
Title: Italiano AC3 1.0 192Kbps
Language: Italian
Default: Yes
Forced: No

Immagini

Shakespeare a colazione (1987), [BDmux 720p – H264 – Ita Eng Ac3 – MultiSub]
Shakespeare a colazione (1987), [BDmux 720p – H264 – Ita Eng Ac3 – MultiSub]
Shakespeare a colazione (1987), [BDmux 720p – H264 – Ita Eng Ac3 – MultiSub]
Shakespeare a colazione (1987), [BDmux 720p – H264 – Ita Eng Ac3 – MultiSub]
Shakespeare a colazione (1987), [BDmux 720p – H264 – Ita Eng Ac3 – MultiSub]
Shakespeare a colazione (1987), [BDmux 720p – H264 – Ita Eng Ac3 – MultiSub]
Shakespeare a colazione (1987), [BDmux 720p – H264 – Ita Eng Ac3 – MultiSub]
Shakespeare a colazione (1987), [BDmux 720p – H264 – Ita Eng Ac3 – MultiSub]
Shakespeare a colazione (1987), [BDmux 720p – H264 – Ita Eng Ac3 – MultiSub]
Shakespeare a colazione (1987), [BDmux 720p – H264 – Ita Eng Ac3 – MultiSub]

Trackers

http://tracker.istole.it:80/
http://tracker.publicbt.com:80/
http://tracker.tntvillage.scambioetico.org:2710/scrape
http://open.demonii.com:1337/scrape
http://tracker.coppersurfer.tk:6969/scrape
http://tracker.openbittorrent.com/scrape