loading...
loading...






Info

Stardust


7.7
IMDB: 7.7/10 214,928 votes

Durata: 127 min

Released:

Anno: 10 Aug 2007

Direttore:

Premi: 5 wins & 6 nominations.

Budget: 70000000$

Incassi: 135560026$

Stato: Released

Paese: UK, USA, Iceland

Tagline: Il prossimo ottobre una stella cadrà e inizierà la magia

Cast:




Da qualche parte nell’Inghilterra vittoriana c’è un muro di mattoni che separa il villaggio reale di Wall da Stormhold, una città fantastica governata da un re malvagio e abitata da streghe e creature magiche.
Al di qua del muro vive Tristan, un giovane garzone che sogna l’avventura e il grande amore.
Figlio di una principessa del regno di Stormhold e di un inglese, il ragazzo decide di attraversare il muro per donare una stella alla ritrosa Victoria.
La stella, Yvaine, è una fanciulla luminosa precipitata dal cielo alla morte del sovrano.
Il suo cuore immacolato è bramato da Lamia, una strega crudele che vorrebbe strapparlo e divorarlo per riconquistare la giovinezza.
Sul petto di Yvaine batte il rubino che permetterebbe ai sette principi, rivali e litigiosi, di regnare su Stormhold. Braccata dai desideri dei malvagi, spetterà a Tristan proteggere lo splendore di Yvaine.
Tratto dal romanzo illustrato di Neil Gaiman e Charles Vess, pubblicato per la prima volta nel 1998, “Stardust” è la favola che tutti vorrebbero leggere e, adesso, vedere.
La versione cinematografica di Matthew Vaughn non delude le attese del pubblico grazie alla perfezione delle immagini, alla tecnologia sbalorditiva impiegata per gli effetti speciali e all’efficacia della recitazione.
Il regista inglese crea sullo schermo un mondo fantastico dove si ragiona in termini supremi: la lotta tra il Bene e il Male, il senso insaziabile dell’uomo per la ricerca di una stella, dell’amore vero, della casa e del destino ultimo.
Come ogni eroe, Tristan varcherà la soglia, il muro di Wall, e affronterà l’ignoto e l’incanto dell’avventura: volare con un pirata frivolo che imprigiona i fulmini o scontrarsi con una strega nomade che trasforma una principessa in un fringuello.
Un soggetto da rito di passaggio su come un “garzone” riesca a riconciliarsi con le umiliazioni subite e a scoprire le proprie incredibili possibilità.
La “polvere cosmica” di Vaughn ha dalla sua (anche) la qualità superiore di tutte le interpretazioni, con punte massime nell’autenticità degli “adolescenti”, Claire Danes e Charlie Cox, pieni di stupore e di angoscia nello stare al gioco di se stessi.
Si aggiungono i numeri accattivanti di Michelle Pfeiffer, strega radiosa che Vaughn magnifica in straordinari primi piani, e Robert De Niro, filibustiere vezzoso col vizio del travestitismo.

Trailer


Upload on Youtube

Info File

Complete name : E:\Stardust 2007 1080p.mkv
Format : Matroska
File size : 4.32 GiB
Duration : 2h 7mn
Overall bit rate : 4 837 Kbps
Encoded date : UTC 2011-12-28 20:32:40
Writing application : mkvmerge v5.2.0 ('I can't explain') built on Dec 18 2011 18:12:03
Writing library : libebml v1.2.3 + libmatroska v1.3.0

Video
ID : 1
Format : AVC
Format/Info : Advanced Video Codec
Format profile : [email protected]
Format settings, CABAC : Yes
Format settings, ReFrames : 4 frames
Muxing mode : Header stripping
Codec ID : V_MPEG4/ISO/AVC
Duration : 2h 7mn
Bit rate : 4 200 Kbps
Width : 1 920 pixels
Height : 800 pixels
Display aspect ratio : 2.40:1
Frame rate mode : Variable
Frame rate : 23.976 fps
Color space : YUV
Chroma subsampling : 4:2:0
Bit depth : 8 bits
Scan type : Progressive
Bits/(Pixel*Frame) : 0.114
Stream size : 3.66 GiB (85%)
Title : Stardust 2007 BDRip 1080p multisub
Writing library : x264 core 88
Encoding settings : cabac=1 / ref=4 / deblock=1:-1:-1 / analyse=0x3:0x133 / me=umh / subme=9 / psy=1 / psy_rd=1.00:0.00 / mixed_ref=1 / me_range=32 / chroma_me=1 / trellis=2 / 8x8dct=1 / cqm=0 / deadzone=21,11 / fast_pskip=1 / chroma_qp_offset=-2 / threads=12 / sliced_threads=0 / nr=0 / decimate=1 / mbaff=0 / constrained_intra=0 / bframes=5 / b_pyramid=2 / b_adapt=2 / b_bias=0 / direct=3 / wpredb=1 / wpredp=2 / keyint=240 / keyint_min=24 / scenecut=40 / intra_refresh=0 / rc_lookahead=50 / rc=2pass / mbtree=1 / bitrate=4200 / ratetol=1.0 / qcomp=0.60 / qpmin=10 / qpmax=51 / qpstep=4 / cplxblur=20.0 / qblur=0.5 / ip_ratio=1.40 / aq=1:1.00
Language : English
Color primaries : BT.709-5, BT.1361, IEC 61966-2-4, SMPTE RP177
Transfer characteristics : BT.709-5, BT.1361
Matrix coefficients : BT.709-5, BT.1361, IEC 61966-2-4 709, SMPTE RP177

Audio #1
ID : 28
Format : AC-3
Format/Info : Audio Coding 3
Mode extension : CM (complete main)
Muxing mode : Header stripping
Codec ID : A_AC3
Duration : 2h 7mn
Bit rate mode : Constant
Bit rate : 448 Kbps
Channel(s) : 2 channels
Channel positions : Front: L R
Sampling rate : 48.0 KHz
Bit depth : 16 bits
Compression mode : Lossy
Stream size : 409 MiB (9%)
Title : Ita
Language : Italian

Audio #2
ID : 29
Format : AC-3
Format/Info : Audio Coding 3
Mode extension : CM (complete main)
Muxing mode : Header stripping
Codec ID : A_AC3
Duration : 2h 7mn
Bit rate mode : Constant
Bit rate : 192 Kbps
Channel(s) : 6 channels
Channel positions : Front: L C R, Side: L R, LFE
Sampling rate : 48.0 KHz
Bit depth : 16 bits
Compression mode : Lossy
Stream size : 175 MiB (4%)
Title : Eng
Language : English

Text #1
ID : 2
Format : UTF-8
Codec ID : S_TEXT/UTF8
Codec ID/Info : UTF-8 Plain Text
Language : Arabic

Text #2
ID : 3
Format : UTF-8
Codec ID : S_TEXT/UTF8
Codec ID/Info : UTF-8 Plain Text
Language : Bulgarian

Text #3
ID : 4
Format : UTF-8
Codec ID : S_TEXT/UTF8
Codec ID/Info : UTF-8 Plain Text
Language : Chinese

Text #4
ID : 5
Format : UTF-8
Codec ID : S_TEXT/UTF8
Codec ID/Info : UTF-8 Plain Text
Language : Danish

Text #5
ID : 6
Format : UTF-8
Codec ID : S_TEXT/UTF8
Codec ID/Info : UTF-8 Plain Text
Language : Dutch

Text #6
ID : 7
Format : VobSub
Muxing mode : zlib
Codec ID : S_VOBSUB
Codec ID/Info : The same subtitle format used on DVDs
Language : English

Text #7
ID : 8
Format : UTF-8
Codec ID : S_TEXT/UTF8
Codec ID/Info : UTF-8 Plain Text
Language : English

Text #8
ID : 9
Format : UTF-8
Codec ID : S_TEXT/UTF8
Codec ID/Info : UTF-8 Plain Text
Language : Finnish

Text #9
ID : 10
Format : UTF-8
Codec ID : S_TEXT/UTF8
Codec ID/Info : UTF-8 Plain Text
Language : French

Text #10
ID : 11
Format : VobSub
Muxing mode : zlib
Codec ID : S_VOBSUB
Codec ID/Info : The same subtitle format used on DVDs
Language : German

Text #11
ID : 12
Format : UTF-8
Codec ID : S_TEXT/UTF8
Codec ID/Info : UTF-8 Plain Text
Language : Hungarian

Text #12
ID : 13
Format : UTF-8
Codec ID : S_TEXT/UTF8
Codec ID/Info : UTF-8 Plain Text
Language : Indonesian

Text #13
ID : 14
Format : UTF-8
Codec ID : S_TEXT/UTF8
Codec ID/Info : UTF-8 Plain Text
Language : Italian

Text #14
ID : 15
Format : UTF-8
Codec ID : S_TEXT/UTF8
Codec ID/Info : UTF-8 Plain Text
Language : Korean

Text #15
ID : 16
Format : UTF-8
Codec ID : S_TEXT/UTF8
Codec ID/Info : UTF-8 Plain Text
Language : Norwegian

Text #16
ID : 17
Format : UTF-8
Codec ID : S_TEXT/UTF8
Codec ID/Info : UTF-8 Plain Text
Language : Persian

Text #17
ID : 18
Format : UTF-8
Codec ID : S_TEXT/UTF8
Codec ID/Info : UTF-8 Plain Text
Language : Polish

Text #18
ID : 19
Format : UTF-8
Codec ID : S_TEXT/UTF8
Codec ID/Info : UTF-8 Plain Text
Title : BR
Language : Portuguese

Text #19
ID : 20
Format : UTF-8
Codec ID : S_TEXT/UTF8
Codec ID/Info : UTF-8 Plain Text
Title : IB
Language : Portuguese

Text #20
ID : 21
Format : UTF-8
Codec ID : S_TEXT/UTF8
Codec ID/Info : UTF-8 Plain Text
Language : Romanian

Text #21
ID : 22
Format : UTF-8
Codec ID : S_TEXT/UTF8
Codec ID/Info : UTF-8 Plain Text
Language : Russian

Text #22
ID : 23
Format : UTF-8
Codec ID : S_TEXT/UTF8
Codec ID/Info : UTF-8 Plain Text
Language : Serbian

Text #23
ID : 24
Format : UTF-8
Codec ID : S_TEXT/UTF8
Codec ID/Info : UTF-8 Plain Text
Language : Spanish

Text #24
ID : 25
Format : UTF-8
Codec ID : S_TEXT/UTF8
Codec ID/Info : UTF-8 Plain Text
Language : Swedish

Text #25
ID : 26
Format : VobSub
Muxing mode : zlib
Codec ID : S_VOBSUB
Codec ID/Info : The same subtitle format used on DVDs
Language : Turkish

Text #26
ID : 27
Format : UTF-8
Codec ID : S_TEXT/UTF8
Codec ID/Info : UTF-8 Plain Text
Language : Vietnamese

Immagini

Stardust (2007), [BDrip 1080p – H264 – Ita Eng Ac3 – MultiSub]
Stardust (2007), [BDrip 1080p – H264 – Ita Eng Ac3 – MultiSub]
Stardust (2007), [BDrip 1080p – H264 – Ita Eng Ac3 – MultiSub]
Stardust (2007), [BDrip 1080p – H264 – Ita Eng Ac3 – MultiSub]
Stardust (2007), [BDrip 1080p – H264 – Ita Eng Ac3 – MultiSub]
Stardust (2007), [BDrip 1080p – H264 – Ita Eng Ac3 – MultiSub]
Stardust (2007), [BDrip 1080p – H264 – Ita Eng Ac3 – MultiSub]
Stardust (2007), [BDrip 1080p – H264 – Ita Eng Ac3 – MultiSub]
Stardust (2007), [BDrip 1080p – H264 – Ita Eng Ac3 – MultiSub]
Stardust (2007), [BDrip 1080p – H264 – Ita Eng Ac3 – MultiSub]
Stardust (2007), [BDrip 1080p – H264 – Ita Eng Ac3 – MultiSub]
Stardust (2007), [BDrip 1080p – H264 – Ita Eng Ac3 – MultiSub]
Stardust (2007), [BDrip 1080p – H264 – Ita Eng Ac3 – MultiSub]
Stardust (2007), [BDrip 1080p – H264 – Ita Eng Ac3 – MultiSub]
Stardust (2007), [BDrip 1080p – H264 – Ita Eng Ac3 – MultiSub]
Stardust (2007), [BDrip 1080p – H264 – Ita Eng Ac3 – MultiSub]
Stardust (2007), [BDrip 1080p – H264 – Ita Eng Ac3 – MultiSub]
Stardust (2007), [BDrip 1080p – H264 – Ita Eng Ac3 – MultiSub]
Stardust (2007), [BDrip 1080p – H264 – Ita Eng Ac3 – MultiSub]
Stardust (2007), [BDrip 1080p – H264 – Ita Eng Ac3 – MultiSub]

Trackers

http://tracker.publicbt.com:80/
http://tracker.istole.it:80/
http://tracker.tntvillage.scambioetico.org:2710/scrape
http://open.demonii.com:1337/scrape
http://tracker.coppersurfer.tk:6969/scrape
http://tracker.openbittorrent.com/scrape