Info

user posted image

.: Scheda della serie :.
Soggetto Tom Hardy, Chips Hardy

Titolo originale Taboo
Paese Regno Unito
Anno 2017
Formato miniserie TV
Genere drammatico, period drama
Puntate 8
Durata 50-55 min
Lingua originale inglese

Cast:
Tom Hardy: James Keziah Delaney
Oona Chaplin: Zilpha Geary
David Hayman: Brace
Michael Kelly: Dr. Dumbarton
Jonathan Pryce: Stuart Strange

.: Info :.
Taboo è una miniserie televisiva britannica composta da 8 puntate, ideata da Tom Hardy e suo padre Chips Hardy, che è anche consulente produttore, e sviluppata e scritta da Steven Knight.

La miniserie è stata trasmessa dal 7 gennaio 2017 su BBC One nel Regno Unito, e dal 10 gennaio 2017 su FX, negli Stati Uniti.

Nel 1814 l’avventuriero James Keziah Delaney, dopo aver passato molti anni in Africa, torna a Londra per riscuotere l’eredità del padre che non ha mai conosciuto. Ben presto dovrà fare i conti con il misterioso passato del padre, fronteggiando la potente Compagnia britannica delle Indie Orientali.

Info File

General
Complete name : Taboo.S01e01-02.DLMux.ITA.ENG.x264-sp_54321/Taboo.S01e01.DLMux.ITA.ENG.x264-sp_54321.mp4
Format : MPEG-4
Format profile : Base Media
Codec ID : isom
File size : 366 MiB
Duration : 55mn 4s
Overall bit rate : 928 Kbps
Encoded date : UTC 1904-01-01 00:00:00
Tagged date : UTC 1904-01-01 00:00:00
Writing application : Lavf57.63.100

Video
ID : 1
Format : AVC
Format/Info : Advanced Video Codec
Format profile : High@L3.1
Format settings, CABAC : Yes
Format settings, ReFrames : 5 frames
Codec ID : avc1
Codec ID/Info : Advanced Video Coding
Duration : 55mn 4s
Bit rate : 675 Kbps
Width : 720 pixels
Height : 400 pixels
Display aspect ratio : 16:9
Original display aspect ratio : 16:9
Frame rate mode : Constant
Frame rate : 25.000 fps
Color space : YUV
Chroma subsampling : 4:2:0
Bit depth : 8 bits
Scan type : Progressive
Bits/(Pixel*Frame) : 0.094
Stream size : 266 MiB (73%)
Writing library : x264 core 148 r2597M e86f3a1
Encoding settings : cabac=1 / ref=5 / deblock=1:-1:-1 / analyse=0x3:0x113 / me=umh / subme=9 / psy=1 / psy_rd=1.00:0.15 / mixed_ref=1 / me_range=16 / chroma_me=1 / trellis=2 / 8x8dct=1 / cqm=0 / deadzone=21,11 / fast_pskip=1 / chroma_qp_offset=-3 / threads=12 / lookahead_threads=1 / sliced_threads=0 / nr=0 / decimate=1 / interlaced=0 / bluray_compat=0 / constrained_intra=0 / bframes=3 / b_pyramid=2 / b_adapt=2 / b_bias=0 / direct=3 / weightb=1 / open_gop=0 / weightp=2 / keyint=250 / keyint_min=25 / scenecut=40 / intra_refresh=0 / rc_lookahead=50 / rc=crf / mbtree=1 / crf=19.0 / qcomp=0.60 / qpmin=0 / qpmax=69 / qpstep=4 / ip_ratio=1.40 / aq=1:1.00
Language : English
Encoded date : UTC 1904-01-01 00:00:00
Tagged date : UTC 1904-01-01 00:00:00

Audio #1
ID : 2
Format : AAC
Format/Info : Advanced Audio Codec
Format profile : LC
Codec ID : 40
Duration : 55mn 4s
Bit rate mode : Constant
Bit rate : 114 Kbps
Channel(s) : 2 channels
Channel positions : Front: L R
Sampling rate : 48.0 KHz
Compression mode : Lossy
Stream size : 44.7 MiB (12%)
Title : Italiano
Language : Italian
Encoded date : UTC 1904-01-01 00:00:00
Tagged date : UTC 1904-01-01 00:00:00

Audio #2
ID : 3
Format : AAC
Format/Info : Advanced Audio Codec
Format profile : LC
Codec ID : 40
Duration : 55mn 4s
Bit rate mode : Constant
Bit rate : 128 Kbps
Channel(s) : 2 channels
Channel positions : Front: L R
Sampling rate : 48.0 KHz
Compression mode : Lossy
Stream size : 50.4 MiB (14%)
Title : English
Language : English
Encoded date : UTC 1904-01-01 00:00:00
Tagged date : UTC 1904-01-01 00:00:00

Trackers

http://tracker.leechers-paradise.org:6969/scrape
http://tracker.tntvillage.scambioetico.org:2710/scrape
http://tracker.tiny-vps.com:6969/scrape
http://tracker.mg64.net:2710/scrape
http://tracker.coppersurfer.tk:6969/scrape
http://IPv6.leechers-paradise.org:6969/scrape
http://tracker.internetwarriors.net:1337/scrape
http://tracker.openbittorrent.com/scrape