Info

user posted image

.: Dati Serie :.

Nazione: Regno Unito
Anno: 2017
Genere: period drama, storico
Stagione 1
Episodi: 8
Durata: 45 min circa
Lingua: ITA – ENG
Cast:
• Tom Hardy: James Keziah Delaney
• Leo Bill: Benjamin Wilton
• Oona Chaplin: Zilpha Geary
• Richard Dixon: Edmund Pettifer
• Edward Fox: Horace Delaney
• Jefferson Hall: Thorne Geary
• David Hayman: Brace
• Edward Hogg:Michael Godfrey
• Franka Potente: Helga von Hinten
• Jonathan Pryce: Stuart Strange
• Nicholas Woodeson: Robert Thoyt

Londra, 1814. In seguito alla morte del padre, James Keziah Delaney, dato da anni per disperso dopo un tragico naufragio al largo delle coste africane, fa improvvisamente ritorno in Inghilterra, ed eredita tutte le fortune del genitore. La notizia lascia di stucco non solo il marito della sorellastra Zylpha, che sperava di mettere le mani sull’eredità del defunto, ma anche il Presidente della Compagnia delle Indie Orientali Sir Stuart Strange, che non vede l’ora di mettere le mani su Nootka Sound, una piccola ma strategica striscia di terra sulla costa nordoccidentale dell’America Settentrionale che fa parte del lascito. James rifiuterà qualsiasi accordo, facendosi subito numerosi nemici: la Corona, gli americani, la Compagnia, il marito di Zylpha, e altri ancora. Al suo fianco, però, avrà anche alcuni fedeli alleati pronti a dare tutto per lui

Info File

Taboo.1x01.Episodio.1.ITA.ENG.1080p.BDMux.x264-Morpheus.mkv
Format : Matroska
Format version : Version 4 / Version 2
File size : 4.01 GiB
Duration : 55mn 20s
Overall bit rate : 10.4 Mbps
Encoded date : UTC 2017-04-21 17:18:51
Writing application : mkvmerge v7.6.0 ('Garden of Dreams') 64bit built on Feb 8 2015 15:12:28
Writing library : libebml v1.3.1 + libmatroska v1.4.2
DURATION : 00:51:19.800000000
NUMBER_OF_FRAMES : 560
NUMBER_OF_BYTES : 20535
_STATISTICS_WRITING_APP : mkvmerge v7.6.0 ('Garden of Dreams') 64bit built on Feb 8 2015 15:12:28
_STATISTICS_WRITING_DATE_UTC : 2017-04-21 17:18:51
_STATISTICS_TAGS : BPS DURATION NUMBER_OF_FRAMES NUMBER_OF_BYTES

Video
ID : 1
Format : AVC
Format/Info : Advanced Video Codec
Format profile : [email protected]
Format settings, CABAC : Yes
Format settings, ReFrames : 4 frames
Codec ID : V_MPEG4/ISO/AVC
Duration : 55mn 20s
Bit rate : 9 797 Kbps
Width : 1 920 pixels
Height : 1 080 pixels
Display aspect ratio : 16:9
Frame rate : 25.000 fps
Color space : YUV
Chroma subsampling : 4:2:0
Bit depth : 8 bits
Scan type : Progressive
Bits/(Pixel*Frame) : 0.189
Stream size : 3.71 GiB (92%)
Writing library : x264 core 148 r2744 b97ae06
Encoding settings : cabac=1 / ref=4 / deblock=1:-3:-3 / analyse=0x3:0x113 / me=umh / subme=8 / psy=1 / psy_rd=1.00:0.00 / mixed_ref=1 / me_range=16 / chroma_me=1 / trellis=1 / 8x8dct=1 / cqm=0 / deadzone=21,11 / fast_pskip=1 / chroma_qp_offset=-2 / threads=24 / lookahead_threads=4 / sliced_threads=0 / nr=0 / decimate=1 / interlaced=0 / bluray_compat=0 / constrained_intra=0 / bframes=3 / b_pyramid=2 / b_adapt=2 / b_bias=0 / direct=3 / weightb=1 / open_gop=0 / weightp=2 / keyint=250 / keyint_min=25 / scenecut=40 / intra_refresh=0 / rc_lookahead=50 / rc=2pass / mbtree=1 / bitrate=9797 / ratetol=1.0 / qcomp=0.60 / qpmin=0 / qpmax=69 / qpstep=4 / cplxblur=20.0 / qblur=0.5 / ip_ratio=1.40 / aq=3:0.80
Default : Yes
Forced : No
DURATION : 00:55:20.160000000
NUMBER_OF_FRAMES : 83004
NUMBER_OF_BYTES : 4064011395
_STATISTICS_WRITING_APP : mkvmerge v7.6.0 ('Garden of Dreams') 64bit built on Feb 8 2015 15:12:28
_STATISTICS_WRITING_DATE_UTC : 2017-04-21 17:18:51
_STATISTICS_TAGS : BPS DURATION NUMBER_OF_FRAMES NUMBER_OF_BYTES

Audio #1
ID : 2
Format : AC-3
Format/Info : Audio Coding 3
Mode extension : CM (complete main)
Codec ID : A_AC3
Duration : 55mn 20s
Bit rate mode : Constant
Bit rate : 192 Kbps
Channel(s) : 2 channels
Channel positions : Front: L R
Sampling rate : 48.0 KHz
Bit depth : 16 bits
Compression mode : Lossy
Stream size : 76.0 MiB (2%)
Title : ITA
Language : Italian
Default : Yes
Forced : Yes

Audio #2
ID : 3
Format : AC-3
Format/Info : Audio Coding 3
Mode extension : CM (complete main)
Codec ID : A_AC3
Duration : 55mn 20s
Bit rate mode : Constant
Bit rate : 384 Kbps
Channel(s) : 6 channels
Channel positions : Front: L C R, Side: L R, LFE
Sampling rate : 48.0 KHz
Bit depth : 16 bits
Compression mode : Lossy
Stream size : 152 MiB (4%)
Title : ENG
Language : English
Default : No
Forced : No

Text #1
ID : 4
Format : UTF-8
Codec ID : S_TEXT/UTF8
Codec ID/Info : UTF-8 Plain Text
Title : ITA - Forced
Language : Italian
Default : Yes
Forced : Yes

Text #2
ID : 5
Format : UTF-8
Codec ID : S_TEXT/UTF8
Codec ID/Info : UTF-8 Plain Text
Language : Italian
Default : No
Forced : No

Text #3
ID : 6
Format : UTF-8
Codec ID : S_TEXT/UTF8
Codec ID/Info : UTF-8 Plain Text
Language : English
Default : No
Forced : No

Menu
00:00:00.000 : en:00:00:00.000
00:04:49.440 : en:00:04:49.440
00:12:35.120 : en:00:12:35.120
00:20:45.760 : en:00:20:45.760
00:33:04.040 : en:00:33:04.040
00:44:36.960 : en:00:44:36.960
00:10:11.520 : en:00:10:11.520

Trackers

http://tracker.leechers-paradise.org:6969/scrape
http://tracker.tntvillage.scambioetico.org:2710/scrape
http://tracker.tiny-vps.com:6969/scrape
http://tracker.coppersurfer.tk:6969/scrape
http://IPv6.leechers-paradise.org:6969/scrape
http://tracker.internetwarriors.net:1337/scrape
http://tracker.mg64.net:2710/scrape
http://tracker.openbittorrent.com/scrape