Info

user posted image

.: Scheda della serie :.
Ideatori Chuck Lorre, Bill Prady

Paese Stati Uniti d’America
Anno 2007 – in produzione
Formato serie TV
Genere sitcom
Stagioni 10
Episodi 216
Durata 22 min (episodio)
Lingua originale inglese

Cast:
Johnny Galecki: Leonard Hofstadter
Jim Parsons: Sheldon Cooper
Kaley Cuoco: Penny
Simon Helberg: Howard Wolowitz
Kunal Nayyar: Raj Koothrappali
Sara Gilbert: Leslie Winkle
Melissa Rauch: Bernadette Rostenkowski
Mayim Bialik: Amy Farrah Fowler
Kevin Sussman: Stuart Bloom
Laura Spencer: Emily Sweeney

Doppiatori Italiani:
Gabriele Lopez: Leonard Hofstadter
Leonardo Graziano: Sheldon Cooper
Eleonora Reti: Penny
Federico Di Pofi: Howard Wolowitz
Alessio Buccolini: Raj Koothrappali
Alessandra Barzaghi: Leslie Winkle
Gemma Donati: Bernadette Rostenkowski
Emilia Costa: Amy Farrah Fowler
Emiliano Reggente: Stuart Bloom
Elena Perino: Emily Sweeney

.: Info :.
The Big Bang Theory è una sitcom statunitense ideata da Chuck Lorre e Bill Prady e prodotta dalla Warner Bros. Television in collaborazione con la Chuck Lorre Productions. L’episodio pilota è andato in onda il 24 settembre 2007 sul canale CBS.

In Italia (dove per le prime sei stagioni era intitolata Big Bang Theory) la serie viene trasmessa in prima visione pay dalla piattaforma Mediaset Premium dal 19 gennaio 2008, e resa disponibile on demand da Infinity TV dal 16 ottobre 2015, mentre in chiaro è trasmessa dai canali Mediaset dal 20 settembre 2010.

Pasadena. Leonard, Sheldon, Howard e Raj sono quattro giovani scienziati che lavorano insieme al California Institute of Technology. La grande intelligenza ne fa tra le menti più valide del Paese, ma di contro li rende socialmente degli inetti: il loro legame d’amicizia è infatti cementato dalla rispettiva condizione, essendo dei nerd e geek a tutti gli effetti. Fuori dal lavoro, il tempo libero dei quattro trascorre principalmente tra la lettura di fumetti, partite a videogame e giochi di ruolo, e la visione di film e serie TV di fantascienza e supereroi; l’assenza di ragazze è una costante nelle loro vite.

Questa scialba routine cambia radicalmente quando Penny, una ragazza di provincia giunta in California per coltivare il sogno di diventare attrice, si trasferisce nell’appartamento di fronte a quello di Sheldon e Leonard. La nuova vicina di pianerottolo, bella ed esuberante, di cui Leonard si innamora a prima vista, è l’esatto opposto dei quattro amici; lo strano e complicato mondo dei ragazzi finisce ben presto per scontrarsi con quello semplice e superficiale di Penny, e le loro tranquille esistenze vengono stravolte. Con il passare degli anni, il gruppo si allarga con quelle che diventeranno le migliori amiche di Penny, Bernadette e Amy, a loro volte scienziate nonché destinate a diventare l’interesse amoroso, rispettivamente, di Howard e Sheldon, oltre a Stuart, titolare della fumetteria frequentata dai quattro amici.

Info File

General
Unique ID : 297362772281871587757038085050078541693 (0xDFB5FC9B8A7904DE24B0BF909BC3377D)
Complete name : The.Big.Bang.Theory.10x01-02.1080p/The.Big.Bang.Theory.10x01.La.Congettura.Coniugale.ITA-ENG.1080p.DLMux.h264-NovaRip.mkv
Format : Matroska
Format version : Version 2
File size : 889 MiB
Duration : 20mn 52s
Overall bit rate mode : Variable
Overall bit rate : 5 956 Kbps
Encoded date : UTC 2017-01-13 06:48:22
Writing application : mkvmerge v8.5.2 ('Crosses') 64bit
Writing library : libebml v1.3.3 + libmatroska v1.4.4
DURATION : 00:20:18.622000000
NUMBER_OF_FRAMES : 477
NUMBER_OF_BYTES : 15910
_STATISTICS_WRITING_APP : mkvmerge v8.5.2 ('Crosses') 64bit
_STATISTICS_WRITING_DATE_UTC : 2017-01-13 06:48:22
_STATISTICS_TAGS : BPS DURATION NUMBER_OF_FRAMES NUMBER_OF_BYTES

Video
ID : 1
Format : AVC
Format/Info : Advanced Video Codec
Format profile : [email protected]
Format settings, CABAC : Yes
Format settings, ReFrames : 2 frames
Codec ID : V_MPEG4/ISO/AVC
Duration : 20mn 52s
Bit rate mode : Variable
Bit rate : 5 262 Kbps
Maximum bit rate : 768 Kbps
Width : 1 912 pixels
Height : 1 076 pixels
Display aspect ratio : 16:9
Frame rate mode : Constant
Frame rate : 25.000 fps
Color space : YUV
Chroma subsampling : 4:2:0
Bit depth : 8 bits
Scan type : Progressive
Bits/(Pixel*Frame) : 0.102
Stream size : 785 MiB (88%)
Language : English
Default : Yes
Forced : Yes

Audio #1
ID : 2
Format : AC-3
Format/Info : Audio Coding 3
Mode extension : CM (complete main)
Format settings, Endianness : Big
Codec ID : A_AC3
Duration : 20mn 52s
Bit rate mode : Constant
Bit rate : 192 Kbps
Channel(s) : 2 channels
Channel positions : Front: L R
Sampling rate : 48.0 KHz
Bit depth : 16 bits
Compression mode : Lossy
Stream size : 28.7 MiB (3%)
Title : ITA
Language : Italian
Default : Yes
Forced : Yes

Audio #2
ID : 3
Format : AC-3
Format/Info : Audio Coding 3
Mode extension : CM (complete main)
Format settings, Endianness : Big
Codec ID : A_AC3
Duration : 20mn 52s
Bit rate mode : Constant
Bit rate : 384 Kbps
Channel(s) : 6 channels
Channel positions : Front: L C R, Side: L R, LFE
Sampling rate : 48.0 KHz
Bit depth : 16 bits
Compression mode : Lossy
Stream size : 57.3 MiB (6%)
Title : ENG
Language : English
Default : No
Forced : No

Text #1
ID : 4
Format : UTF-8
Codec ID : S_TEXT/UTF8
Codec ID/Info : UTF-8 Plain Text
Title : NO SUBS
Default : Yes
Forced : Yes

Text #2
ID : 5
Format : UTF-8
Codec ID : S_TEXT/UTF8
Codec ID/Info : UTF-8 Plain Text
Title : ITA
Language : Italian
Default : No
Forced : No

Text #3
ID : 6
Format : UTF-8
Codec ID : S_TEXT/UTF8
Codec ID/Info : UTF-8 Plain Text
Title : ENG
Language : English
Default : No
Forced : No

Trackers

http://tracker.leechers-paradise.org:6969/scrape
http://tracker.tntvillage.scambioetico.org:2710/scrape
http://tracker.tiny-vps.com:6969/scrape
http://tracker.mg64.net:2710/scrape
http://tracker.coppersurfer.tk:6969/scrape
http://IPv6.leechers-paradise.org:6969/scrape
http://tracker.internetwarriors.net:1337/scrape
http://tracker.openbittorrent.com/scrape