loading...
loading...






Info

The Darkling


3.7
IMDB: 3.7/10 503 votes

Durata: 120 min

Released:

Anno: 14 Aug 2000

Direttore:

Premi: 1 nomination.

Stato: Released

Paese: USA

Cast:




Quando il meccanico Jeff Obold e la bellissima moglie Marla incontrano il misterioso e facoltoso Bruno Rubin, per la prima volta si ritrovano a contatto con il vero lusso. Ben presto Jeff scopre la vera fonte di Bruno: una strana creatura tenuta rinchiusa in una gabbia e chiamata Darkling che possiede il potere di dare un’enorme ricchezza. Jeff, che vuole riscattarsi dalla sua vita fallimentare, riesce a sottrarre…………..

 

Trailer


Upload on Youtube

Info File

Video
ID : 0
Format : MPEG-4 Visual
Format settings, BVOP : Yes
Format settings, QPel : No
Format settings, GMC : No warppoints
Format settings, Matrix : Default (H.263)
Codec ID : DX50
Codec ID/Hint : DivX 5
Duration : 1h 26mn
Bit rate : 980 Kbps
Width : 640 pixels
Height : 464 pixels
Display aspect ratio : 1.379
Frame rate : 25.000 fps
Color space : YUV
Chroma subsampling : 4:2:0
Bit depth : 8 bits
Scan type : Progressive
Bits/(Pixel*Frame) : 0.132
Stream size : 604 MiB (87%)
Writing library : DivX 5.2.1

Audio
ID : 1
Format : MPEG Audio
Format version : Version 1
Format profile : Layer 3
Mode : Joint stereo
Mode extension : MS Stereo
Codec ID : 55
Codec ID/Hint : MP3
Duration : 1h 26mn
Bit rate mode : Constant
Bit rate : 128 Kbps
Channel(s) : 2 channels
Sampling rate : 48.0 KHz
Stream size : 78.9 MiB (11%)
Alignment : Split accross interleaves
Interleave, duration : 24 ms (0.60 video frame)
Interleave, preload duration : 67 ms

Immagini

The Darkling – Il Lato Oscuro dell’Anima (2000), [DivX – Ita Mp3]

Trackers

http://tracker.publicbt.com:80/
http://tracker.istole.it:80/
http://tracker.tntvillage.scambioetico.org:2710/scrape
http://open.demonii.com:1337/scrape
http://tracker.coppersurfer.tk:6969/scrape
http://tracker.openbittorrent.com/scrape