loading...
loading...






Info

user posted image

Nazione: Stati Uniti d’America Anno: 2016 – in produzione Genere: drammatico, thriller, horror Stagioni 1 Episodi: 13 Durata: 43 min circa Lingua: ITA – ENG Cast: • Geena Davis: Angela Rance/Regan MacNeil • Alfonso Herrera: Padre Tomas Ortega • Ben Daniels: Padre Marcus Keane • Hannah Kasulka: Casey Rance • Brianne Howey: Katherine Rance • Kurt Egyiawan: Padre Bennett • Alan Ruck: Henry Rance  Angela Rance, madre e moglie modello, si divide tra lavoro e famiglia. Con lei, le sue due figlie Katherine e Casey. La prima, taciturna e ribelle, sta passando un periodo problematico a causa di un grave incidente. La seconda, giovane, affascinante e taciturna, sembra vivere la classica vita di un normale adolescente americano.  A sconvolgere la vita della donna, l’ipotesi che nella sua casa si nasconda qualcosa di strano e di sovrannaturale, fuori da ogni logica razionale. Si rivolge così al prete della sua parrocchia, Padre Tomas, convinta che il demonio che alberga nella sua abitazione stia pian piano prendendo il sopravvento sulle sue figlie.  Assieme all’aiuto del noto esorcista Padre Marcus, dovranno fare tutto il possibile per salvare la vita delle due ragazze.

Info File

The.Exorcist.1x01.Capitolo.Uno.Le.Origini.Del.Male.ITA.ENG.1080p.WEB-DLMux.H.264-LittleLinX.GiuseppeiCV.mkv
Format : Matroska
Format version : Version 4 / Version 2
File size : 1.83 GiB
Duration : 44mn 4s
Overall bit rate : 5 946 Kbps
Encoded date : UTC 2016-10-31 22:56:24
Writing application : mkvmerge v7.6.0 ('Garden of Dreams') 64bit built on Feb 8 2015 15:12:28
Writing library : libebml v1.3.1 + libmatroska v1.4.2
DURATION : 00:44:04.928000000
NUMBER_OF_FRAMES : 82654
NUMBER_OF_BYTES : 126956544
_STATISTICS_WRITING_APP : mkvmerge v7.6.0 ('Garden of Dreams') 64bit built on Feb 8 2015 15:12:28
_STATISTICS_WRITING_DATE_UTC : 2016-10-31 22:56:24
_STATISTICS_TAGS : BPS DURATION NUMBER_OF_FRAMES NUMBER_OF_BYTES

Video
ID : 1
Format : AVC
Format/Info : Advanced Video Codec
Format profile : [email protected]
Format settings, CABAC : Yes
Format settings, ReFrames : 4 frames
Codec ID : V_MPEG4/ISO/AVC
Duration : 44mn 5s
Bit rate : 5 252 Kbps
Width : 1 920 pixels
Height : 1 080 pixels
Display aspect ratio : 16:9
Frame rate : 25.000 fps
Color space : YUV
Chroma subsampling : 4:2:0
Bit depth : 8 bits
Scan type : Progressive
Bits/(Pixel*Frame) : 0.101
Stream size : 1.62 GiB (88%)
Language : English
Default : Yes
Forced : No
Color primaries : BT.709-5, BT.1361, IEC 61966-2-4, SMPTE RP177
Transfer characteristics : BT.709-5, BT.1361
Matrix coefficients : BT.709-5, BT.1361, IEC 61966-2-4 709, SMPTE RP177

Audio #1
ID : 2
Format : AC-3
Format/Info : Audio Coding 3
Mode extension : CM (complete main)
Codec ID : A_AC3
Duration : 44mn 4s
Bit rate mode : Constant
Bit rate : 192 Kbps
Channel(s) : 2 channels
Channel positions : Front: L R
Sampling rate : 48.0 KHz
Bit depth : 16 bits
Compression mode : Lossy
Stream size : 60.5 MiB (3%)
Title : ITA
Language : Italian
Default : Yes
Forced : Yes

Audio #2
ID : 3
Format : AC-3
Format/Info : Audio Coding 3
Mode extension : CM (complete main)
Codec ID : A_AC3
Duration : 44mn 4s
Bit rate mode : Constant
Bit rate : 384 Kbps
Channel(s) : 6 channels
Channel positions : Front: L C R, Side: L R, LFE
Sampling rate : 48.0 KHz
Bit depth : 16 bits
Compression mode : Lossy
Stream size : 121 MiB (6%)
Title : ENG
Language : English
Default : No
Forced : No

Text #1
ID : 4
Format : UTF-8
Codec ID : S_TEXT/UTF8
Codec ID/Info : UTF-8 Plain Text
Title : ITA - Forced
Language : Italian
Default : Yes
Forced : Yes

Text #2
ID : 5
Format : UTF-8
Codec ID : S_TEXT/UTF8
Codec ID/Info : UTF-8 Plain Text
Language : Italian
Default : No
Forced : No

Text #3
ID : 6
Format : UTF-8
Codec ID : S_TEXT/UTF8
Codec ID/Info : UTF-8 Plain Text
Language : English
Default : No
Forced : No

Trackers

http://tracker.mg64.net:2710/scrape
http://tracker.leechers-paradise.org:6969/scrape
http://IPv6.leechers-paradise.org:6969/scrape
http://tracker.tntvillage.scambioetico.org:2710/scrape
http://tracker.internetwarriors.net:1337/scrape
http://tracker.tiny-vps.com:6969/scrape
http://tracker.coppersurfer.tk:6969/scrape
http://tracker.openbittorrent.com/scrape

Torrent correlati

Torrent Name Dimm. Creato Seed Leech
comment icon
570.47 Mb 2 settimane fa 72 7
comment icon
2.55 Gb 3 mesi fa 5 1
comment icon
172.19 Mb 1 settimana fa 16 1
comment icon
0 bytes 4 settimane fa 0 0
comment icon
467.46 Mb 3 settimane fa 78 2