loading...
loading...






Info

user posted image

: Dati Serie :.

Titolo originale: The Last Kingdom
Nazione: Regno Unito, Stati Uniti d’America
Anno: 2015
Genere: storico, drammatico
Durata Episodio: 55 minuti circa
Stagioni: 1
Numero episodi: 8
Cast:
• Alexander Dreymon: Uhtred of Bebbanburg
• David Dawson: King Alfred
• Tobias Santelmann: Ragnar the Younger
• Emily Cox: Brida
• Adrian Bower: Leofric
• Thomas W. Gabrielsson: Guthrum
• Joseph Millson: Ælfric
• Simon Kunz: Odda the Elder
• Harry McEntire: Aethelwold
• Charlie Murphy: Queen Iseult
• Rune Temte: Ubba
• Brian Vernel: Odda the Younger
• Amy Wren: Mildrith
• Matthew Macfadyen: Lord Uhtred
• Ian Hart: Beocca

IX secolo d.C., Regno di Northumbria. L’Inghilterra è quasi interamente soggiogata dalla supremazia vichinga e l’unico regno che cerca ancora di difendersi è quello di Wessex, guidato dal re Alfred the Great (David Dowson).

Il giovane Uhtred di Bebbanburg (Alexander Dreymon), rimasto orfano a causa delle razzie dei vichinghi, viene rapito dagli assassini del padre che vedono in lui le potenzialità di un vero guerriero danese e lo crescono come uno di loro.

Ormai adulto, Ulthred è schiavo delle sue doppie origini in un mondo in preda al caos e dove la guerra non è mai finita. Questo contrasto con il suo vecchio mondo sarà massimo proprio quando, per vari motivi, tornerà ad esso e cercherà di stabilire nuovi legami con la sua vecchia gente. Ad aiutarlo nella sua impresa sarà l’amica e amante Brida (Emily Cox).

Basata sulla serie best seller di romanzi “Le storie dei Re Sassoni” di Bernard Cornwell (pubblicati anche in Italia a partire dal 2006, con la casa editrice Longanesi), “The Last Kingdom” è una serie tv storica nata dalla coproduzione tra BBC America e BBC Two.
La serie è stata prodotta dalla stessa casa di produzione di “Downton Abbey”: la Carnival Films.
Questo historical drama combina personaggi realmente esistiti con eventi di pura finzione.

Nel cast internazionale ricordiamo: Tom Taylor nel ruolo del piccolo Uhtred, Matthew Macfadyen che interpreta Lord Uhtred, Ian Hart nei panni di Beocca e Peter Gantzler nel ruolo di Earl Ragnar.

Info File

General
The.Last.Kingdom.1x01.Episodio.1.ITA.ENG.720p.BDMux.x264-Speranzah.mkv
Format : Matroska
Format version : Version 4 / Version 2
File size : 2.26 GiB
Duration : 59mn 2s
Overall bit rate : 5 482 Kbps
Encoded date : UTC 2016-11-06 08:35:51
Writing application : mkvmerge v7.6.0 ('Garden of Dreams') 64bit built on Feb 8 2015 15:12:28
Writing library : libebml v1.3.1 + libmatroska v1.4.2
DURATION : 00:26:30.933000000
NUMBER_OF_FRAMES : 4
NUMBER_OF_BYTES : 142
_STATISTICS_WRITING_APP : mkvmerge v7.6.0 ('Garden of Dreams') 64bit built on Feb 8 2015 15:12:28
_STATISTICS_WRITING_DATE_UTC : 2016-11-06 08:35:51
_STATISTICS_TAGS : BPS DURATION NUMBER_OF_FRAMES NUMBER_OF_BYTES

Video
ID : 1
Format : AVC
Format/Info : Advanced Video Codec
Format profile : [email protected]
Format settings, CABAC : Yes
Format settings, ReFrames : 5 frames
Codec ID : V_MPEG4/ISO/AVC
Duration : 59mn 2s
Bit rate : 4 904 Kbps
Width : 1 280 pixels
Height : 720 pixels
Display aspect ratio : 16:9
Frame rate : 25.000 fps
Color space : YUV
Chroma subsampling : 4:2:0
Bit depth : 8 bits
Scan type : Progressive
Bits/(Pixel*Frame) : 0.213
Stream size : 1.98 GiB (88%)
Writing library : x264 core 148 r2638 7599210
Encoding settings : cabac=1 / ref=5 / deblock=1:-2:-2 / analyse=0x3:0x113 / me=umh / subme=8 / psy=1 / psy_rd=1.00:0.00 / mixed_ref=1 / me_range=16 / chroma_me=1 / trellis=1 / 8x8dct=1 / cqm=0 / deadzone=21,11 / fast_pskip=1 / chroma_qp_offset=-2 / threads=6 / lookahead_threads=1 / sliced_threads=0 / nr=0 / decimate=1 / interlaced=0 / bluray_compat=0 / constrained_intra=0 / bframes=3 / b_pyramid=2 / b_adapt=2 / b_bias=0 / direct=3 / weightb=1 / open_gop=0 / weightp=2 / keyint=250 / keyint_min=25 / scenecut=40 / intra_refresh=0 / rc_lookahead=50 / rc=2pass / mbtree=1 / bitrate=4904 / ratetol=1.0 / qcomp=0.60 / qpmin=0 / qpmax=69 / qpstep=4 / cplxblur=20.0 / qblur=0.5 / ip_ratio=1.40 / aq=1:1.00
Language : English
Default : Yes
Forced : No
_STATISTICS_WRITING_APP : mkvmerge v7.6.0 ('Garden of Dreams') 64bit built on Feb 8 2015 15:12:28
_STATISTICS_WRITING_DATE_UTC : 2016-11-06 08:35:51
_STATISTICS_TAGS : BPS DURATION NUMBER_OF_FRAMES NUMBER_OF_BYTES
DURATION : 00:59:02.000000000
NUMBER_OF_FRAMES : 88550
NUMBER_OF_BYTES : 2171077990

Audio #1
ID : 2
Format : AC-3
Format/Info : Audio Coding 3
Mode extension : CM (complete main)
Codec ID : A_AC3
Duration : 59mn 2s
Bit rate mode : Constant
Bit rate : 192 Kbps
Channel(s) : 2 channels
Channel positions : Front: L R
Sampling rate : 48.0 KHz
Bit depth : 16 bits
Compression mode : Lossy
Stream size : 81.1 MiB (4%)
Title : ITA
Language : Italian
Default : Yes
Forced : Yes

Audio #2
ID : 3
Format : AC-3
Format/Info : Audio Coding 3
Mode extension : CM (complete main)
Codec ID : A_AC3
Duration : 59mn 2s
Bit rate mode : Constant
Bit rate : 384 Kbps
Channel(s) : 6 channels
Channel positions : Front: L C R, Side: L R, LFE
Sampling rate : 48.0 KHz
Bit depth : 16 bits
Compression mode : Lossy
Stream size : 162 MiB (7%)
Title : ENG
Language : English
Default : No
Forced : No
_STATISTICS_WRITING_APP : mkvmerge v7.6.0 ('Garden of Dreams') 64bit built on Feb 8 2015 15:12:28
_STATISTICS_WRITING_DATE_UTC : 2016-11-06 08:35:51
_STATISTICS_TAGS : BPS DURATION NUMBER_OF_FRAMES NUMBER_OF_BYTES
DURATION : 00:58:19.079000000
NUMBER_OF_FRAMES : 650
NUMBER_OF_BYTES : 20550

Text #1
ID : 4
Format : UTF-8
Codec ID : S_TEXT/UTF8
Codec ID/Info : UTF-8 Plain Text
Title : ITA - Forced
Language : Italian
Default : Yes
Forced : Yes
_STATISTICS_WRITING_APP : mkvmerge v7.6.0 ('Garden of Dreams') 64bit built on Feb 8 2015 15:12:28
_STATISTICS_WRITING_DATE_UTC : 2016-11-06 08:35:51
_STATISTICS_TAGS : BPS DURATION NUMBER_OF_FRAMES NUMBER_OF_BYTES
DURATION : 00:58:19.079000000
NUMBER_OF_FRAMES : 733
NUMBER_OF_BYTES : 23467

Text #2
ID : 5
Format : UTF-8
Codec ID : S_TEXT/UTF8
Codec ID/Info : UTF-8 Plain Text
Language : Italian
Default : No
Forced : No

Text #3
ID : 6
Format : UTF-8
Codec ID : S_TEXT/UTF8
Codec ID/Info : UTF-8 Plain Text
Language : English
Default : No
Forced : No

Text #4
ID : 7
Format : UTF-8
Codec ID : S_TEXT/UTF8
Codec ID/Info : UTF-8 Plain Text
Title : SDH
Language : English
Default : No
Forced : No

Menu
00:00:00.000 : en:00:00:00.000
00:03:11.720 : en:00:03:11.720
00:15:05.120 : en:00:15:05.120
00:25:13.800 : en:00:25:13.800
00:35:01.000 : en:00:35:01.000
00:45:11.120 : en:00:45:11.120
00:58:27.480 : en:00:58:27.480

Trackers

http://IPv6.leechers-paradise.org:6969/scrape
http://tracker.mg64.net:2710/scrape
http://tracker.leechers-paradise.org:6969/scrape
http://tracker.tntvillage.scambioetico.org:2710/scrape
http://tracker.tiny-vps.com:6969/scrape
http://tracker.internetwarriors.net:1337/scrape
http://tracker.openbittorrent.com/scrape
http://tracker.coppersurfer.tk:6969/scrape