loading...
loading...






Info

user posted image

Scheda della serie

Creatore: Hank Steinberg, Steven Kane

Cast:
Eric Dane: Tom Chandler
Rhona Mitra: Rachel Scott
Adam Baldwin: Mike Slattery
Charles Parnell: Hugh Jeter
Sam Spruell: Quincy Tophet
Travis Van Winkle: Danny Green
Marissa Neitling: Kara Fost
Christina Elmore: Alisha Granderson
John Pyper-Ferguson: Tex Nolan
Jocko Sims: Carlton Burk
Kevin Michael Martin: Miller
Bren Foster: Wolf “Wolf-Man” Taylor

Storia e ambientazione:
The Last Ship è una serie televisiva post apocalittica statunitense creata da Hank Steinberg e Steven Kane per il network TNT, e prodotta, tra gli altri, da Michael Bay. La serie si basa sull’omonimo romanzo del 1988 di William Brinkley.

 

Trama

Dopo che una pandemia globale ha ucciso l’80% della popolazione mondiale, l’equipaggio del USS Nathan James, un cacciatorpediniere lanciamissili classe Arleigh Burke[1][2] della Marina degli Stati Uniti, cerca di trovare le cause del virus ed evitare la totale estinzione dell’umanità. Il Comandante Tom Chandler guida il suo equipaggio alla ricerca della verità, con l’aiuto del suo secondo in comando Mike Slattery e della biologa Rachel Scott.

La prima stagione, composta da dieci episodi, ha debuttato negli Stati Uniti il 22 giugno 2014.[3] In Italia la serie è andata in onda in prima visione su Italia 1 a partire dal 12 settembre 2014.[4]

Il 18 luglio la serie è stata rinnovata per una seconda stagione da 13 episodi ed è stata trasmessa a partire dal 21 giugno 2015 in prima visione assoluta da TNT.[5] In Italia la seconda stagione è andata in onda in prima visione su Italia 1 a partire dal 10 maggio 2016. A conclusione della seconda stagione, il network ha chiesto a TNT la continuazione della serie per un altro anno, portando così a 3 il numero di stagioni della serie, rinnovando nuovamente con altri tredici episodi. La terza stagione doveva andare in onda il 12 Giugno 2016 ma a causa della sparatoria ad Orlando la TNT ha deciso di mandare in onda la serie TV con 1 settimana di ritardo.

Titolo originale The Last Ship
Paese Stati Uniti d’America
Anno 2014 – in produzione
Formato serie TV
Genere azione, fantascienza, drammatico, thriller
Stagioni 3
Episodi 36
Durata 45 min (episodio)
Lingua originale inglese

 

Info File

General
Unique ID : 42690397545974924088977201663357461634 (0x201DDF1A7013CEA0A552DB4B0C37A482)
Complete name : The.Last.Ship.S03E06.720p.HDTV.X264-DIMENSION[rarbg]/The.Last.Ship.S03E06.720p.HDTV.X264-DIMENSION.mkv
Format : Matroska
Format version : Version 4 / Version 2
File size : 1.25 GiB
Duration : 42 min
Overall bit rate : 4 227 kb/s
Encoded date : UTC 2016-07-17 17:34:18
Writing application : mkvmerge v8.4.0 ('A better way to fly') 64bit
Writing library : libebml v1.3.1 + libmatroska v1.4.2

Video
ID : 1
Format : AVC
Format/Info : Advanced Video Codec
Format profile : [email protected]
Format settings, CABAC : Yes
Format settings, ReFrames : 9 frames
Codec ID : V_MPEG4/ISO/AVC
Duration : 42 min
Bit rate : 3 778 kb/s
Width : 1 280 pixels
Height : 712 pixels
Display aspect ratio : 16:9
Frame rate mode : Constant
Frame rate : 23.976 (24000/1001) FPS
Color space : YUV
Chroma subsampling : 4:2:0
Bit depth : 8 bits
Scan type : Progressive
Bits/(Pixel*Frame) : 0.173
Stream size : 1.11 GiB (89%)
Writing library : x264 core 148 r2705 3f5ed56
Encoding settings : cabac=1 / ref=9 / deblock=1:-2:-2 / analyse=0x3:0x133 / me=umh / subme=10 / psy=1 / psy_rd=1.00:0.00 / mixed_ref=1 / me_range=32 / chroma_me=1 / trellis=2 / 8x8dct=1 / cqm=0 / deadzone=21,11 / fast_pskip=0 / chroma_qp_offset=-2 / threads=16 / lookahead_threads=1 / sliced_threads=0 / nr=0 / decimate=1 / interlaced=0 / bluray_compat=0 / constrained_intra=0 / bframes=5 / b_pyramid=2 / b_adapt=2 / b_bias=0 / direct=3 / weightb=1 / open_gop=0 / weightp=2 / keyint=250 / keyint_min=23 / scenecut=40 / intra_refresh=0 / rc_lookahead=60 / rc=crf / mbtree=1 / crf=18.0 / qcomp=0.60 / qpmin=0 / qpmax=69 / qpstep=4 / ip_ratio=1.40 / aq=1:1.00
Language : English
Default : Yes
Forced : No
Color range : Limited
Matrix coefficients : BT.709

Audio
ID : 2
Format : AC-3
Format/Info : Audio Coding 3
Mode extension : CM (complete main)
Format settings, Endianness : Big
Codec ID : A_AC3
Duration : 42 min
Bit rate mode : Constant
Bit rate : 448 kb/s
Channel(s) : 6 channels
Channel positions : Front: L C R, Side: L R, LFE
Sampling rate : 48.0 kHz
Frame rate : 31.250 FPS (1536 spf)
Compression mode : Lossy
Stream size : 135 MiB (11%)
Default : Yes
Forced : No

General
Complete name : The.Last.Ship.S03E06.720p.HDTV.X264-DIMENSION[rarbg]/The.Last.Ship.S03E06.720p.HDTV.X264-DIMENSION.ita.srt
Format : SubRip
File size : 39.6 KiB

Text
Format : SubRip
Compression mode : Lossless

General
Complete name : The.Last.Ship.S03E06.720p.HDTV.X264-DIMENSION[rarbg]/The.Last.Ship.S03E06.720p.HDTV.X264-DIMENSION.en.srt
Format : SubRip
File size : 36.0 KiB

Text
Format : SubRip
Compression mode : Lossless

Immagini

The Last Ship 3×11 [SATMux – 720p – H264 – Eng Ac3 5.1 – Sub Ita Eng] HDTVMux
The Last Ship 3×11 [SATMux – 720p – H264 – Eng Ac3 5.1 – Sub Ita Eng] HDTVMux
The Last Ship 3×11 [SATMux – 720p – H264 – Eng Ac3 5.1 – Sub Ita Eng] HDTVMux
The Last Ship 3×11 [SATMux – 720p – H264 – Eng Ac3 5.1 – Sub Ita Eng] HDTVMux

Trackers

http://tracker.istole.it:80/
http://tracker.publicbt.com:80/
http://tracker.tntvillage.scambioetico.org:2710/scrape
http://open.demonii.com:1337/scrape
http://tracker.coppersurfer.tk:6969/scrape
http://tracker.openbittorrent.com/scrape