loading...
loading...






Info

user posted image

Nazione: USA
Anno: 2010 – in produzione
Genere: azione, drammatico, horror
Stagioni 7
Episodi: 99
Durata: 45 min circa
Lingua: ITA – ENG
Ideatore: Frank Darabont, Robert Kirkman
Cast:
Interpreti e personaggi
• Andrew Lincoln: Rick Grimes
• Jon Bernthal: Shane Walsh
• Sarah Wayne Callies: Lori Grimes
• Laurie Holden: Andrea
• Jeffrey DeMunn: Dale Horvath
• Steven Yeun: Glenn
• Norman Reedus: Daryl Dixon
• Chandler Riggs: Carl Grimes
• Melissa McBride: Carol Peletier.: Trama :.

The Walking Dead è un drama ricco di azione e suspense che racconta la storia di un gruppo di cittadini americani sopravvissuti a un’invasione di zombie. Guidati dal poliziotto Rick Grimes (interpretato dall’attore inglese Andrew Lincoln, già visto in Afterlife), i superstiti vagano alla ricerca di un posto sicuro dove potersi rifugiare e, lungo il cammino, affrontano numerosi pericoli e conflitti, anche di natura personale: non esiste più un posto dove sentirsi al sicuro e non è più tempo di sperare. Bisogna solo sopravvivere, ad ogni costo!

Nella sesta stagione vedremo Rick e Morgan impegnati in un duro scontro per contendersi il controllo della città di Alexandria. Sarà proprio questo loro aspro confronto a essere il vero protagonista di questo nuovo capitolo. Il gruppo di Rick però, sembra non essere più compatto come un tempo e molti cominciano a non sopportare i modi con cui il loro capo risolve le problematiche della città. Riuscirà Rick a riportare l’armonia del gruppo senza trascurare le minacce che arrivano dall’esterno?

La serie campione d’ascolti e vincitrice di due Emmy Awards, è pronta a tornare il 15 febbraio 2016 in prima visione assoluta su Fox con la seconda metà della sesta stagione, a sole 24 ore dalla messa in onda americana. E ci sarà anche Negan.

Info File

The.Walking.Dead.7x01.Io.Ti.Uccidero.ITA.ENG.720p.WEB-DLMux.H.264-Speranzah.mkv
Format : Matroska
Format version : Version 4 / Version 2
File size : 1.52 GiB
Duration : 44mn 13s
Overall bit rate : 4 914 Kbps
Encoded date : UTC 2016-10-24 22:53:47
Writing application : mkvmerge v7.6.0 ('Garden of Dreams') 64bit built on Feb 8 2015 15:12:28
Writing library : libebml v1.3.1 + libmatroska v1.4.2
DURATION : 00:44:13.205000000
NUMBER_OF_FRAMES : 76176
NUMBER_OF_BYTES : 63676916
_STATISTICS_WRITING_APP : mkvmerge v7.6.0 ('Garden of Dreams') 64bit built on Feb 8 2015 15:12:28
_STATISTICS_WRITING_DATE_UTC : 2016-10-24 22:53:47
_STATISTICS_TAGS : BPS DURATION NUMBER_OF_FRAMES NUMBER_OF_BYTES

Video
ID : 1
Format : AVC
Format/Info : Advanced Video Codec
Format profile : [email protected]
Format settings, CABAC : No
Format settings, ReFrames : 2 frames
Codec ID : V_MPEG4/ISO/AVC
Duration : 44mn 13s
Bit rate : 4 240 Kbps
Width : 1 280 pixels
Height : 718 pixels
Display aspect ratio : 16:9
Frame rate : 25.000 fps
Color space : YUV
Chroma subsampling : 4:2:0
Bit depth : 8 bits
Scan type : Progressive
Bits/(Pixel*Frame) : 0.185
Stream size : 1.31 GiB (86%)
Language : English
Default : Yes
Forced : No
Color primaries : BT.709-5, BT.1361, IEC 61966-2-4, SMPTE RP177
Transfer characteristics : BT.709-5, BT.1361
Matrix coefficients : BT.709-5, BT.1361, IEC 61966-2-4 709, SMPTE RP177

Audio #1
ID : 2
Format : AC-3
Format/Info : Audio Coding 3
Mode extension : CM (complete main)
Codec ID : A_AC3
Duration : 44mn 13s
Bit rate mode : Constant
Bit rate : 192 Kbps
Channel(s) : 2 channels
Channel positions : Front: L R
Sampling rate : 44.1 KHz
Bit depth : 16 bits
Compression mode : Lossy
Stream size : 60.7 MiB (4%)
Title : ITA
Language : Italian
Default : Yes
Forced : Yes

Audio #2
ID : 3
Format : AC-3
Format/Info : Audio Coding 3
Mode extension : CM (complete main)
Codec ID : A_AC3
Duration : 44mn 13s
Bit rate mode : Constant
Bit rate : 384 Kbps
Channel(s) : 6 channels
Channel positions : Front: L C R, Side: L R, LFE
Sampling rate : 48.0 KHz
Bit depth : 16 bits
Compression mode : Lossy
Stream size : 121 MiB (8%)
Title : ENG
Language : English
Default : No
Forced : No

Text #1
ID : 4
Format : UTF-8
Codec ID : S_TEXT/UTF8
Codec ID/Info : UTF-8 Plain Text
Language : Italian
Default : No
Forced : No

Text #2
ID : 5
Format : UTF-8
Codec ID : S_TEXT/UTF8
Codec ID/Info : UTF-8 Plain Text
Language : English
Default : No
Forced : No

Trackers

http://tracker.mg64.net:2710/scrape
http://tracker.leechers-paradise.org:6969/scrape
http://IPv6.leechers-paradise.org:6969/scrape
http://tracker.tntvillage.scambioetico.org:2710/scrape
http://tracker.internetwarriors.net:1337/scrape
http://tracker.tiny-vps.com:6969/scrape
http://tracker.coppersurfer.tk:6969/scrape
http://tracker.openbittorrent.com/scrape