13 a Tavola (1985), [XviD]  (1.56 Gb)

Likes(0)Dislikes(0)
seeders: 5
leechers: 0








Info

Thirteen at Dinner


6.2
IMDB: 6.2/10 1,370 votes

Durata: 87 min

Released:

Anno: 19 Sep 1985

Direttore:

Premi: N/A

Stato: Released

Paese: USA, UK

Cast:




Il ricco lord inglese George Edgeware è stato ucciso e il celebre investigatore Hercule Poirot si trova proprio lì per indagare sul caso. A confondere le acque ci pensano due personaggi: una certa Carlotta Adams e la vedova di Lord Edgeware, famosa attrice americana. Ma Poirot non è tipo da lasciarsi abbindolare facilmente.

Trailer


Upload on Youtube

Info File

Video
ID : 0
Format : MPEG-4 Visual
Format profile : Advanced [email protected]
Format settings, BVOP : 1
Format settings, QPel : No
Format settings, GMC : No warppoints
Format settings, Matrix : Custom
Codec ID : XVID
Codec ID/Hint : XviD
Duration : 1h 30mn
Bit rate : 2 075 Kbps
Width : 720 pixels
Height : 544 pixels
Display aspect ratio : 4:3
Frame rate : 25.000 fps
Color space : YUV
Chroma subsampling : 4:2:0
Bit depth : 8 bits
Scan type : Progressive
Compression mode : Lossy
Bits/(Pixel*Frame) : 0.212
Stream size : 1.31 GiB (84%)
Writing library : XviD 1.2.1 (UTC 2008-12-04)

Audio #1
ID : 1
Format : MPEG Audio
Format version : Version 1
Format profile : Layer 3
Mode : Joint stereo
Mode extension : MS Stereo
Codec ID : 55
Codec ID/Hint : MP3
Duration : 1h 30mn
Bit rate mode : Constant
Bit rate : 192 Kbps
Channel(s) : 2 channels
Sampling rate : 48.0 KHz
Compression mode : Lossy
Stream size : 124 MiB (8%)
Alignment : Aligned on interleaves
Interleave, duration : 80 ms (2.00 video frames)
Interleave, preload duration : 504 ms
Writing library : LAME3.98r
Encoding settings : -m j -V 4 -q 2 -lowpass 18.6 -b 192
Language : Italiano

Immagini

13 a Tavola (1985), [XviD]

Trackers

http://tracker.istole.it:80/
http://tracker.tntvillage.scambioetico.org:2710/scrape
http://open.demonii.com:1337/scrape
http://tracker.publicbt.com:80/
http://tracker.coppersurfer.tk:6969/scrape
http://tracker.openbittorrent.com/scrape