loading...
loading...






Info

Catch and Release


6.0
IMDB: 6.0/10 18,765 votes

Durata: 124 min

Released:

Anno: 26 Jan 2007

Direttore:

Premi: N/A

Budget: 25000000$

Incassi: 16158487$

Stato: Released

Paese: USA

Cast:




A pochi giorni dal matrimonio, il fidanzato di Gray Wheeler muore in un tragico incidente in canoa. La ragazza è ovviamente sconvolta, ma cerca di andare avanti con la sua vita anche grazie all’aiuto degli amici: il simpatico Sam, il dolce Dennis e l’ambiguo Fritz. Sarà proprio quest’ultimo a svelarle uno sconvolgente segreto………….

Trailer


Upload on Youtube

Info File

Video
ID : 1
Format : AVC
Format/Info : Advanced Video Codec
Format profile : [email protected]
Format settings, CABAC : Yes
Format settings, ReFrames : 2 frames
Codec ID : V_MPEG4/ISO/AVC
Duration : 1h 51mn
Bit rate : 1 240 Kbps
Width : 720 pixels
Height : 300 pixels
Display aspect ratio : 2.40:1
Frame rate mode : Variable
Frame rate : 23.976 fps
Color space : YUV
Chroma subsampling : 4:2:0
Bit depth : 8 bits
Scan type : Progressive
Bits/(Pixel*Frame) : 0.239
Stream size : 960 MiB (56%)
Writing library : x264 core 130 r2273
Encoding settings : cabac=1 / ref=2 / deblock=1:0:0 / analyse=0x1:0x131 / me=hex / subme=7 / psy=1 / psy_rd=1.00:0.00 / mixed_ref=0 / me_range=16 / chroma_me=1 / trellis=1 / 8x8dct=0 / cqm=0 / deadzone=21,11 / fast_pskip=1 / chroma_qp_offset=-2 / threads=12 / lookahead_threads=2 / sliced_threads=0 / nr=0 / decimate=1 / interlaced=0 / bluray_compat=0 / constrained_intra=0 / bframes=3 / b_pyramid=0 / b_adapt=1 / b_bias=0 / direct=3 / weightb=1 / open_gop=0 / weightp=2 / keyint=230 / keyint_min=23 / scenecut=40 / intra_refresh=0 / rc_lookahead=40 / rc=2pass / mbtree=1 / bitrate=1240 / ratetol=1.0 / qcomp=0.60 / qpmin=10 / qpmax=69 / qpstep=4 / cplxblur=20.0 / qblur=0.5 / vbv_maxrate=24000 / vbv_bufsize=24000 / nal_hrd=none / ip_ratio=1.40 / aq=1:1.00
Language : Italian
Default : Yes
Forced : Yes
DURATION : 01:51:36.064000000
NUMBER_OF_FRAMES : 160545
NUMBER_OF_BYTES : 4132789496
_STATISTICS_WRITING_APP : mkvmerge v9.3.1 ('Mask Machine') 64bit
_STATISTICS_WRITING_DATE_UTC : 2016-07-14 20:53:28
_STATISTICS_TAGS : BPS DURATION NUMBER_OF_FRAMES NUMBER_OF_BYTES

Audio #1
ID : 2
Format : AC-3
Format/Info : Audio Coding 3
Mode extension : CM (complete main)
Codec ID : A_AC3
Duration : 1h 51mn
Bit rate mode : Constant
Bit rate : 448 Kbps
Channel(s) : 6 channels
Channel positions : Front: L C R, Side: L R, LFE
Sampling rate : 48.0 KHz
Bit depth : 16 bits
Compression mode : Lossy
Delay relative to video : 1mn 5s
Stream size : 358 MiB (21%)
Title : AC3 5.1 640Kbps
Language : Italian
Default : Yes
Forced : Yes
DURATION : 01:51:36.128000000
NUMBER_OF_FRAMES : 209254
NUMBER_OF_BYTES : 535690240
_STATISTICS_WRITING_APP : mkvmerge v9.3.1 ('Mask Machine') 64bit
_STATISTICS_WRITING_DATE_UTC : 2016-07-14 20:53:28
_STATISTICS_TAGS : BPS DURATION NUMBER_OF_FRAMES NUMBER_OF_BYTES

Immagini

Tutte le cose che non sai di lui (2006), [Mux – H264 – Ita Eng Ac3 5.1 – Sub Ita Eng]
Tutte le cose che non sai di lui (2006), [Mux – H264 – Ita Eng Ac3 5.1 – Sub Ita Eng]
Tutte le cose che non sai di lui (2006), [Mux – H264 – Ita Eng Ac3 5.1 – Sub Ita Eng]

Trackers

http://tracker.publicbt.com:80/
http://tracker.tntvillage.scambioetico.org:2710/scrape
http://open.demonii.com:1337/scrape
http://tracker.coppersurfer.tk:6969/scrape
http://tracker.openbittorrent.com/scrape
http://tracker.istole.it:80/

Torrent correlati

Torrent Name Dimm. Creato Seed Leech
comment icon
1.21 Gb 1 settimana fa 2 1
comment icon
1.52 Gb 2 settimane fa 0 4
comment icon
688.82 Mb 2 mesi fa 12 1
comment icon
1.91 Gb 2 mesi fa 0 0
comment icon
2.13 Gb 2 mesi fa 0 1