loading...
loading...






Info

Evan Almighty


5.4
IMDB: 5.4/10 116,274 votes

Durata: 96 min

Released:

Anno: 22 Jun 2007

Direttore:

Premi: 2 wins & 11 nominations.

Budget: 175000000$

Incassi: 173000000$

Stato: Released

Paese: USA

Tagline: Dio ha un grande piano... indovina chi lo deve realizzare?

Cast:




L’ex anchorman Evan Baxter, da poco eletto al Congresso degli Stati Uniti d’America, si ritrova la vita sconvolta, quando Dio gli appare per affidargli una missione: costruire una nuova Arca, proprio come fece Noè. Inizialmente Baxter fa di tutto per non arrendersi alla prospettiva di costruire un’arca, anche per colpa delle cose negative che avrebbe portato al suo lavoro al Congresso, ma finalmente cede. L’aspetto di Evan comincia a somigliare sempre più a quello del patriarca biblico, grazie ad una miracolosa ricrescita di barba e capelli (che rende vano tagliarli), e ad una tunica proprio come quella di Noè. Nonostante i problemi sul lavoro e con la famiglia causatigli dalla costruzione dell’Arca, Evan continua fino al giorno in cui Dio gli ha predetto l’alluvione. La polizia, sobillata dal capo del Congresso, che ha interessi nello sfruttamento economico di tipo illegale dei parchi e delle riserve naturali………

Trailer


Upload on Youtube

Info File

Complete name Un Impresa Da Dio - Evan Almighty (2007)\Un Impresa Da Dio - Evan Almighty (2007).avi
Format : AVI
Format/Info : Audio Video Interleave
File size : 1.79 GiB
Duration : 1h 35mn
Overall bit rate : 2 674 Kbps
Writing application : VirtualDubMod 1.5.10.2 (build 2540/release)
Writing library : VirtualDubMod build 2540/release

Video
ID : 0
Format : MPEG-4 Visual
Format profile : [email protected]
Format settings, BVOP : No
Format settings, QPel : No
Format settings, GMC : No warppoints
Format settings, Matrix : Default (H.263)
Codec ID : DX50
Codec ID/Hint : DivX 5
Duration : 1h 35mn
Bit rate : 1 764 Kbps
Width : 720 pixels
Height : 304 pixels
Display aspect ratio : 2.35:1
Frame rate : 23.976 fps
Color space : YUV
Chroma subsampling : 4:2:0
Bit depth : 8 bits
Scan type : Interlaced
Scan order : Top Field First
Bits/(Pixel*Frame) : 0.336
Stream size : 1.18 GiB (66%)
Writing library : Lavc52.30.1

Audio #1
ID : 1
Format : AC-3
Format/Info : Audio Coding 3
Mode extension : CM (complete main)
Codec ID : 2000
Duration : 1h 35mn
Bit rate mode : Constant
Bit rate : 448 Kbps
Channel(s) : 6 channels
Channel positions : Front: L C R, Side: L R, LFE
Sampling rate : 48.0 KHz
Bit depth : 16 bits
Stream size : 307 MiB (17%)
Alignment : Split accross interleaves
Interleave, duration : 42 ms (1.00 video frame)
Interleave, preload duration : 500 ms

Audio #2
ID : 2
Format : AC-3
Format/Info : Audio Coding 3
Mode extension : CM (complete main)
Codec ID : 2000
Duration : 1h 35mn
Bit rate mode : Constant
Bit rate : 448 Kbps
Channel(s) : 6 channels
Channel positions : Front: L C R, Side: L R, LFE
Sampling rate : 48.0 KHz
Bit depth : 16 bits
Stream size : 307 MiB (17%)
Alignment : Split accross interleaves
Interleave, duration : 42 ms (1.00 video frame)
Interleave, preload duration : 500 ms

Immagini

Un Impresa Da Dio – Evan Almighty (2007), [XviD – Ita Eng Ac3 5.1 – Sub Ita Eng]
Un Impresa Da Dio – Evan Almighty (2007), [XviD – Ita Eng Ac3 5.1 – Sub Ita Eng]
Un Impresa Da Dio – Evan Almighty (2007), [XviD – Ita Eng Ac3 5.1 – Sub Ita Eng]
Un Impresa Da Dio – Evan Almighty (2007), [XviD – Ita Eng Ac3 5.1 – Sub Ita Eng]
Un Impresa Da Dio – Evan Almighty (2007), [XviD – Ita Eng Ac3 5.1 – Sub Ita Eng]
Un Impresa Da Dio – Evan Almighty (2007), [XviD – Ita Eng Ac3 5.1 – Sub Ita Eng]
Un Impresa Da Dio – Evan Almighty (2007), [XviD – Ita Eng Ac3 5.1 – Sub Ita Eng]
Un Impresa Da Dio – Evan Almighty (2007), [XviD – Ita Eng Ac3 5.1 – Sub Ita Eng]
Un Impresa Da Dio – Evan Almighty (2007), [XviD – Ita Eng Ac3 5.1 – Sub Ita Eng]
Un Impresa Da Dio – Evan Almighty (2007), [XviD – Ita Eng Ac3 5.1 – Sub Ita Eng]
Un Impresa Da Dio – Evan Almighty (2007), [XviD – Ita Eng Ac3 5.1 – Sub Ita Eng]
Un Impresa Da Dio – Evan Almighty (2007), [XviD – Ita Eng Ac3 5.1 – Sub Ita Eng]
Un Impresa Da Dio – Evan Almighty (2007), [XviD – Ita Eng Ac3 5.1 – Sub Ita Eng]
Un Impresa Da Dio – Evan Almighty (2007), [XviD – Ita Eng Ac3 5.1 – Sub Ita Eng]
Un Impresa Da Dio – Evan Almighty (2007), [XviD – Ita Eng Ac3 5.1 – Sub Ita Eng]
Un Impresa Da Dio – Evan Almighty (2007), [XviD – Ita Eng Ac3 5.1 – Sub Ita Eng]
Un Impresa Da Dio – Evan Almighty (2007), [XviD – Ita Eng Ac3 5.1 – Sub Ita Eng]
Un Impresa Da Dio – Evan Almighty (2007), [XviD – Ita Eng Ac3 5.1 – Sub Ita Eng]

Trackers

http://tracker.publicbt.com:80/
http://tracker.tntvillage.scambioetico.org:2710/scrape
http://open.demonii.com:1337/scrape
http://tracker.coppersurfer.tk:6969/scrape
http://tracker.openbittorrent.com/scrape
http://tracker.istole.it:80/