loading...
loading...






Info

Bridge to Terabithia


7.2
IMDB: 7.2/10 112,400 votes

Durata: 96 min

Released:

Anno: 16 Feb 2007

Direttore:

Premi: 6 wins & 5 nominations.

Budget: 60000000$

Incassi: 137587063$

Stato: Released

Paese: USA, New Zealand

Cast:




Jess, un ragazzino di undici anni, vede la sua vita cambiare improvvisamente, quando fa amicizia con Leslie, una coetanea appena arrivata nella sua scuola. I due si inventano un mondo immaginario chiamato Terabithia, popolato da creature magiche, giganti e trolls. Mentre la vita in famiglia è ricca di contrasti, i due nel loro “mondo” sono il re e la regina…

Trailer


Upload on Youtube

Info File

Complete name : G:\Un ponte per Terabithia.mkv
Format : Matroska
Format version : Version 4 / Version 2
File size : 4.06 GiB
Duration : 1h 35mn
Overall bit rate : 6 090 Kbps
Encoded date : UTC 2015-04-17 10:36:13
Writing application : mkvmerge v7.8.0 ('River Man') 64bit built on Mar 27 2015 16:31:37
Writing library : libebml v1.3.1 + libmatroska v1.4.2
Attachements : cover.png / small_cover.png
DURATION : 01:35:31.776000000
NUMBER_OF_FRAMES : 179118
NUMBER_OF_BYTES : 458542080
_STATISTICS_WRITING_APP : mkvmerge v7.8.0 ('River Man') 64bit built on Mar 27 2015 16:31:37
_STATISTICS_WRITING_DATE_UT : 2015-04-17 10:36:13
_STATISTICS_TAGS : BPS DURATION NUMBER_OF_FRAMES NUMBER_OF_BYTES

Video
ID : 1
Format : AVC
Format/Info : Advanced Video Codec
Format profile : [email protected]
Format settings, CABAC : Yes
Format settings, ReFrames : 4 frames
Codec ID : V_MPEG4/ISO/AVC
Duration : 1h 35mn
Bit rate : 5 000 Kbps
Width : 1 920 pixels
Height : 1 038 pixels
Display aspect ratio : 1.85:1
Frame rate mode : Constant
Frame rate : 23.976 fps
Color space : YUV
Chroma subsampling : 4:2:0
Bit depth : 8 bits
Scan type : Progressive
Bits/(Pixel*Frame) : 0.105
Stream size : 3.26 GiB (80%)
Writing library : x264 core 142 r2479 dd79a61
Encoding settings : cabac=1 / ref=1 / deblock=1:0:0 / analyse=0x1:0x111 / me=hex / subme=2 / psy=1 / psy_rd=1.00:0.00 / mixed_ref=0 / me_range=16 / chroma_me=1 / trellis=0 / 8x8dct=0 / cqm=0 / deadzone=21,11 / fast_pskip=1 / chroma_qp_offset=0 / threads=12 / lookahead_threads=4 / sliced_threads=0 / nr=0 / decimate=1 / interlaced=0 / bluray_compat=0 / constrained_intra=0 / bframes=3 / b_pyramid=2 / b_adapt=1 / b_bias=0 / direct=1 / weightb=1 / open_gop=0 / weightp=1 / keyint=240 / keyint_min=24 / scenecut=40 / intra_refresh=0 / rc_lookahead=10 / rc=2pass / mbtree=1 / bitrate=5000 / ratetol=1.0 / qcomp=0.60 / qpmin=0 / qpmax=69 / qpstep=4 / cplxblur=20.0 / qblur=0.5 / vbv_maxrate=20000 / vbv_bufsize=25000 / nal_hrd=none / filler=0 / ip_ratio=1.40 / aq=1:1.00
Default : Yes
Forced : No
Color primaries : BT.709
Transfer characteristics : BT.709
Matrix coefficients : BT.709
Color range : Limited
DURATION : 01:35:31.768000000
NUMBER_OF_FRAMES : 137425
NUMBER_OF_BYTES : 3581570629
_STATISTICS_WRITING_APP : mkvmerge v7.8.0 ('River Man') 64bit built on Mar 27 2015 16:31:37
_STATISTICS_WRITING_DATE_UT : 2015-04-17 10:36:13
_STATISTICS_TAGS : BPS DURATION NUMBER_OF_FRAMES NUMBER_OF_BYTES

Audio #1
ID : 2
Format : AC-3
Format/Info : Audio Coding 3
Mode extension : CM (complete main)
Format settings, Endianness : Big
Codec ID : A_AC3
Duration : 1h 35mn
Bit rate mode : Constant
Bit rate : 448 Kbps
Channel(s) : 6 channels
Channel positions : Front: L C R, Side: L R, LFE
Sampling rate : 48.0 KHz
Bit depth : 16 bits
Compression mode : Lossy
Delay relative to video : -83ms
Stream size : 306 MiB (7%)
Language : Italian
Default : Yes
Forced : No

Audio #2
ID : 3
Format : AC-3
Format/Info : Audio Coding 3
Mode extension : CM (complete main)
Format settings, Endianness : Big
Codec ID : A_AC3
Duration : 1h 35mn
Bit rate mode : Constant
Bit rate : 640 Kbps
Channel(s) : 6 channels
Channel positions : Front: L C R, Side: L R, LFE
Sampling rate : 48.0 KHz
Bit depth : 16 bits
Compression mode : Lossy
Delay relative to video : -83ms
Stream size : 437 MiB (11%)
Language : English
Default : No
Forced : No

Menu
00:00:00.000 : en:Jess Aarons
00:05:55.355 : en:Leslie Burke
00:08:16.162 : en:Fastest Kid in the Fifth Grade
00:12:52.938 : en:"Why Can't We Be Friends?"
00:20:07.247 : en:Enchanged Rope
00:27:22.807 : en:Rulers of Terabithia
00:38:50.828 : en:Prince Terrien, Giant Troll Hunter
00:48:29.406 : en:The Golden Room
00:54:57.752 : en:Church Sunday
00:57:36.536 : en:Lost Keys
01:05:47.985 : en:The Perfect Day
01:09:52.813 : en:No!
01:13:10.552 : en:Stranded
01:23:52.736 : en:Building the Bridge
01:30:38.766 : en:Credits

Immagini

Un ponte per Terabithia (2007), [BDmux 1080p – H264 – Ita Eng Ac3]
Un ponte per Terabithia (2007), [BDmux 1080p – H264 – Ita Eng Ac3]
Un ponte per Terabithia (2007), [BDmux 1080p – H264 – Ita Eng Ac3]
Un ponte per Terabithia (2007), [BDmux 1080p – H264 – Ita Eng Ac3]
Un ponte per Terabithia (2007), [BDmux 1080p – H264 – Ita Eng Ac3]
Un ponte per Terabithia (2007), [BDmux 1080p – H264 – Ita Eng Ac3]
Un ponte per Terabithia (2007), [BDmux 1080p – H264 – Ita Eng Ac3]
Un ponte per Terabithia (2007), [BDmux 1080p – H264 – Ita Eng Ac3]
Un ponte per Terabithia (2007), [BDmux 1080p – H264 – Ita Eng Ac3]
Un ponte per Terabithia (2007), [BDmux 1080p – H264 – Ita Eng Ac3]
Un ponte per Terabithia (2007), [BDmux 1080p – H264 – Ita Eng Ac3]
Un ponte per Terabithia (2007), [BDmux 1080p – H264 – Ita Eng Ac3]
Un ponte per Terabithia (2007), [BDmux 1080p – H264 – Ita Eng Ac3]
Un ponte per Terabithia (2007), [BDmux 1080p – H264 – Ita Eng Ac3]

Trackers

http://tracker.publicbt.com:80/
http://tracker.istole.it:80/
http://tracker.tntvillage.scambioetico.org:2710/scrape
http://open.demonii.com:1337/scrape
http://tracker.coppersurfer.tk:6969/scrape
http://tracker.openbittorrent.com/scrape

Torrent correlati

Torrent Name Dimm. Creato Seed Leech
comment icon
747.06 Mb 2 mesi fa 0 0
comment icon
1.8 Gb 2 mesi fa 4 0
comment icon
1.09 Gb 3 settimane fa 1 2
comment icon
0 bytes 4 settimane fa 0 0
comment icon
1.96 Gb 2 mesi fa 23 4